General

Unique ID : 243038098515123554826650073832278314553 (0xB6D76F665D86FCE4A992189E3CA1CE39)
Complete name : /home/30nama/movies/s/Stalker_1979_1080p_BluRay_Full_HD_FLAC_EA_30NAMA.mkv
Format : Matroska
Format version : Version 4
File size : 20.6 GiB
Duration : 2 h 41 min
Overall bit rate mode : Variable
Overall bit rate : 18.2 Mb/s
Movie name : Andrei Tarkovsky - Stalker (1979)
Encoded date : UTC 2015-06-16 04:50:49
Writing application : mkvmerge v7.9.0 ('Birds') 64bit
Writing library : libebml v1.3.1 + libmatroska v1.4.2

Video

ID : 1
Format : AVC
Format/Info : Advanced Video Codec
Format profile : High@L4.1
Format settings : CABAC / 5 Ref Frames
Format settings, CABAC : Yes
Format settings, ReFrames : 5 frames
Codec ID : V_MPEG4/ISO/AVC
Duration : 2 h 41 min
Bit rate : 17.9 Mb/s
Width : 1 436 pixels
Height : 1 080 pixels
Display aspect ratio : 4:3
Frame rate mode : Constant
Frame rate : 23.976 (24000/1001) FPS
Color space : YUV
Chroma subsampling : 4:2:0
Bit depth : 8 bits
Scan type : Progressive
Bits/(Pixel*Frame) : 0.480
Stream size : 20.2 GiB (98%)
Title : -EA
Writing library : x264 core 146 r0+2586 e393126 t_mod_Custom [8-bit@all X86_64]
Encoding settings : cabac=1 / ref=5 / deblock=1:-3:-3 / analyse=0x3:0x113 / me=umh / subme=10 / psy=1 / fade_compensate=0.00 / psy_rd=1.10:0.00 / mixed_ref=1 / me_range=32 / chroma_me=1 / trellis=2 / 8x8dct=1 / cqm=0 / deadzone=21,11 / fast_pskip=0 / chroma_qp_offset=-2 / threads=24 / lookahead_threads=4 / sliced_threads=0 / nr=0 / decimate=0 / interlaced=0 / bluray_compat=0 / constrained_intra=0 / fgo=0 / bframes=8 / b_pyramid=2 / b_adapt=2 / b_bias=0 / direct=3 / weightb=1 / open_gop=0 / weightp=2 / keyint=240 / keyint_min=23 / scenecut=40 / intra_refresh=0 / rc_lookahead=60 / rc=crf / mbtree=0 / crf=15.2000 / qcomp=0.75 / qpmin=0:0:0 / qpmax=69:69:69 / qpstep=4 / vbv_maxrate=62500 / vbv_bufsize=78125 / crf_max=0.0 / nal_hrd=none / filler=0 / ip_ratio=1.20 / pb_ratio=1.10 / aq=3:0.65 / aq-sensitivity=10.00 / aq-factor=1.00:1.00:1.00 / aq2=1:0.50 / aq2-sensitivity=15.00 / aq2-factor=1.00:1.00:1.00 / aq3=1:[0.55:0.55]:[0.55:0.55]:[0.55:0.55]:[0.55:0.55] / aq3-sensitivity=10.00 / aq3-factor=[1.00:1.00]:[1.00:1.00]:[1.00:1.00] / aq3-boundary=192:64:24
Language : Russian
Default : Yes
Forced : No

Audio

ID : 2
Format : FLAC
Format/Info : Free Lossless Audio Codec
Codec ID : A_FLAC
Duration : 2 h 41 min
Bit rate mode : Variable
Bit rate : 294 kb/s
Channel(s) : 2 channels
Channel layout : L R
Sampling rate : 48.0 kHz
Frame rate : 11.719 FPS (4096 SPF)
Bit depth : 16 bits
Compression mode : Lossless
Stream size : 341 MiB (2%)
Writing library : libFLAC 1.2.1 (UTC 2007-09-17)
Language : Russian
Default : Yes
Forced : No

Text #1

ID : 3
Format : UTF-8
Codec ID : S_TEXT/UTF8
Codec ID/Info : UTF-8 Plain Text
Duration : 2 h 41 min
Bit rate : 32 b/s
Count of elements : 1020
Stream size : 38.0 KiB (0%)
Title : srt
Language : English
Default : Yes
Forced : Yes

Text #2

ID : 4
Format : PGS
Muxing mode : zlib
Codec ID : S_HDMV/PGS
Codec ID/Info : Picture based subtitle format used on BDs/HD-DVDs
Duration : 2 h 38 min
Bit rate : 53.0 kb/s
Count of elements : 8186
Stream size : 60.0 MiB (0%)
Title : sup
Language : Japanese
Default : No
Forced : No

Menu

00:00:00.000 : en:00:00:00.000
00:20:59.467 : en:00:20:59.467
00:39:24.654 : en:00:39:24.654
01:05:36.516 : en:01:05:36.516
01:23:45.229 : en:01:23:45.229
01:44:47.698 : en:01:44:47.698
02:02:13.284 : en:02:02:13.284
02:21:16.802 : en:02:21:16.802