General

Unique ID : 680506180034386084744608028603493933 (0x830F8B89FEF6E3C6F2CE502DE0AE2D)
Complete name : /home/30nama/movies/t/The_Dead_Don_t_Die_2019_1080p_BluRay_Full_HD_DTS_ZQ_30NAMA.mkv
Format : Matroska
Format version : Version 4
File size : 9.43 GiB
Duration : 1 h 44 min
Overall bit rate : 12.9 Mb/s
Movie name : The Dead Don't Die (2019) - ZQ
Encoded date : UTC 2019-09-01 19:23:23
Writing application : mkvmerge v37.0.0 ('Leave It') 64-bit
Writing library : libebml v1.3.9 + libmatroska v1.5.2

Video

ID : 1
Format : AVC
Format/Info : Advanced Video Codec
Format profile : High@L4.1
Format settings : CABAC / 4 Ref Frames
Format settings, CABAC : Yes
Format settings, ReFrames : 4 frames
Codec ID : V_MPEG4/ISO/AVC
Duration : 1 h 44 min
Bit rate : 11.4 Mb/s
Width : 1 920 pixels
Height : 1 080 pixels
Display aspect ratio : 16:9
Frame rate mode : Constant
Frame rate : 23.976 (24000/1001) FPS
Color space : YUV
Chroma subsampling : 4:2:0
Bit depth : 8 bits
Scan type : Progressive
Bits/(Pixel*Frame) : 0.229
Stream size : 8.32 GiB (88%)
Writing library : x264 core 158 r2984+49 6932f4a t_mod_New [0-bit@all X86_64]
Encoding settings : cabac=1 / ref=4 / deblock=1:-3:-3 / analyse=0x3:0x133 / me=umh / subme=10 / psy=1 / fade_compensate=0.00 / psy_rd=0.92:0.00 / mixed_ref=1 / me_range=48 / chroma_me=1 / trellis=2 / 8x8dct=1 / cqm=0 / deadzone=21,11 / fast_pskip=0 / chroma_qp_offset=-2 / threads=12 / lookahead_threads=3 / sliced_threads=0 / nr=0 / decimate=0 / interlaced=0 / bluray_compat=0 / constrained_intra=0 / fgo=0 / bframes=10 / b_pyramid=2 / b_adapt=2 / b_bias=0 / direct=3 / weightb=1 / open_gop=0 / weightp=2 / keyint=250 / keyint_min=23 / scenecut=40 / intra_refresh=0 / rc_lookahead=60 / rc=crf / mbtree=0 / crf=17.1000 / qcomp=0.64 / qpmin=0:0:0 / qpmax=69:69:69 / qpstep=4 / vbv_maxrate=62500 / vbv_bufsize=78125 / crf_max=0.0 / nal_hrd=none / filler=0 / ip_ratio=1.40 / pb_ratio=1.30 / aq=3:0.98 / aq-sensitivity=12.00 / aq-factor=1.00:1.00:1.00 / aq2=0 / aq3=0 / zones=35087,37825,crf=16.1
Language : English
Default : Yes
Forced : No
Color range : Limited
Color primaries : BT.709
Matrix coefficients : BT.709

Audio

ID : 2
Format : DTS
Format/Info : Digital Theater Systems
Codec ID : A_DTS
Duration : 1 h 44 min
Bit rate mode : Constant
Bit rate : 1 509 kb/s
Channel(s) : 6 channels
Channel layout : C L R Ls Rs LFE
Sampling rate : 48.0 kHz
Frame rate : 93.750 FPS (512 SPF)
Bit depth : 24 bits
Compression mode : Lossy
Stream size : 1.10 GiB (12%)
Language : English
Default : Yes
Forced : No

Text #1

ID : 3
Format : UTF-8
Codec ID : S_TEXT/UTF8
Codec ID/Info : UTF-8 Plain Text
Duration : 1 h 37 min
Bit rate : 42 b/s
Count of elements : 1034
Stream size : 30.0 KiB (0%)
Language : English
Default : No
Forced : No

Text #2

ID : 4
Format : UTF-8
Codec ID : S_TEXT/UTF8
Codec ID/Info : UTF-8 Plain Text
Duration : 1 h 43 min
Bit rate : 39 b/s
Count of elements : 1008
Stream size : 30.0 KiB (0%)
Language : Spanish
Default : No
Forced : No

Text #3

ID : 5
Format : UTF-8
Codec ID : S_TEXT/UTF8
Codec ID/Info : UTF-8 Plain Text
Duration : 1 h 43 min
Bit rate : 43 b/s
Count of elements : 1011
Stream size : 33.2 KiB (0%)
Language : French
Default : No
Forced : No

Text #4

ID : 6
Format : UTF-8
Codec ID : S_TEXT/UTF8
Codec ID/Info : UTF-8 Plain Text
Duration : 1 h 42 min
Bit rate : 54 b/s
Count of elements : 1364
Stream size : 40.9 KiB (0%)
Title : SDH
Language : English
Default : No
Forced : No

Menu

00:00:00.000 : :Chapter 1
00:05:01.510 : :Chapter 2
00:10:04.437 : :Chapter 3
00:17:04.148 : :Chapter 4
00:22:28.848 : :Chapter 5
00:28:04.725 : :Chapter 6
00:31:36.269 : :Chapter 7
00:37:56.649 : :Chapter 8
00:43:22.642 : :Chapter 9
00:50:53.050 : :Chapter 10
00:57:04.504 : :Chapter 11
01:01:16.965 : :Chapter 12
01:06:41.581 : :Chapter 13
01:09:20.823 : :Chapter 14
01:14:47.775 : :Chapter 15
01:18:47.681 : :Chapter 16
01:23:50.442 : :Chapter 17
01:28:10.202 : :Chapter 18
01:33:15.799 : :Chapter 19
01:39:10.987 : :Chapter 20