General

Unique ID : 24225890410467960851975843439735172977 (0x1239BC9D6C7D682B358E265D3A3B6F71)
Complete name : /home/30nama/movies/t/The_Lighthouse_2019_1080p_BluRay_Full_HD_AC3_30NAMA.mkv
Format : Matroska
Format version : Version 4
File size : 16.4 GiB
Duration : 1 h 49 min
Overall bit rate : 21.5 Mb/s
Movie name : The Lighthouse (2019) Lionsgate Films - ZQ
Encoded date : UTC 2020-01-04 11:24:38
Writing application : mkvmerge v42.0.0 ('Overtime') 64-bit
Writing library : libebml v1.3.10 + libmatroska v1.5.2

Video

ID : 1
Format : AVC
Format/Info : Advanced Video Codec
Format profile : High@L4.1
Format settings : CABAC / 5 Ref Frames
Format settings, CABAC : Yes
Format settings, ReFrames : 5 frames
Codec ID : V_MPEG4/ISO/AVC
Duration : 1 h 49 min
Bit rate : 20.3 Mb/s
Width : 1 296 pixels
Height : 1 080 pixels
Display aspect ratio : 1.200
Frame rate mode : Constant
Frame rate : 23.976 (24000/1001) FPS
Color space : YUV
Chroma subsampling : 4:2:0
Bit depth : 8 bits
Scan type : Progressive
Bits/(Pixel*Frame) : 0.606
Stream size : 15.5 GiB (95%)
Writing library : x264 core 159 r2991+50 29469ee t_mod_New [all-bit@all X86_64]
Encoding settings : cabac=1 / ref=5 / deblock=1:-3:-3 / analyse=0x3:0x133 / me=umh / subme=11 / psy=1 / fade_compensate=0.00 / psy_rd=1.05:0.00 / mixed_ref=1 / me_range=48 / chroma_me=1 / trellis=2 / 8x8dct=1 / cqm=0 / deadzone=21,11 / fast_pskip=0 / chroma_qp_offset=-2 / threads=12 / lookahead_threads=3 / sliced_threads=0 / nr=0 / decimate=0 / interlaced=0 / bluray_compat=0 / constrained_intra=0 / fgo=0 / bframes=13 / b_pyramid=2 / b_adapt=2 / b_bias=0 / direct=3 / weightb=1 / open_gop=0 / weightp=2 / keyint=250 / keyint_min=23 / scenecut=40 / intra_refresh=0 / rc_lookahead=60 / rc=crf / mbtree=0 / crf=16.2000 / qcomp=0.65 / qpmin=0:0:0 / qpmax=69:69:69 / qpstep=4 / vbv_maxrate=62500 / vbv_bufsize=78125 / crf_max=0.0 / nal_hrd=none / filler=0 / ip_ratio=1.30 / pb_ratio=1.20 / aq=3:0.80 / aq-sensitivity=10.00 / aq-factor=1.00:1.00:1.00 / aq2=0 / aq3=0 / zones=9819,9969,crf=14.2/11902,12196,crf=14.2/16165,16319,crf=14.2/20875,21115,crf=14.2/25028,25164,crf=14.2/25495,25603,crf=14.2/50999,51837,crf=14.2/55366,56086,crf=14.2/59668,61186,crf=14.2/74826,75029,crf=14.2/100697,101699,crf=14.2/112556,112901,crf=14.2/135717,137717,crf=14.2
Default : Yes
Forced : No
Color range : Limited
Color primaries : BT.709
Transfer characteristics : BT.709
Matrix coefficients : BT.709

Audio #1

ID : 2
Format : E-AC-3
Format/Info : Enhanced AC-3
Commercial name : Dolby Digital Plus
Codec ID : A_EAC3
Duration : 1 h 49 min
Bit rate mode : Constant
Bit rate : 1 023 kb/s
Channel(s) : 6 channels
Channel layout : L R C LFE Ls Rs
Sampling rate : 48.0 kHz
Frame rate : 93.750 FPS (512 SPF)
Compression mode : Lossy
Stream size : 799 MiB (5%)
Title : DD+5.1 - Dolby Media Producer
Language : English
Service kind : Complete Main
Default : Yes
Forced : No

Audio #2

ID : 3
Format : AAC LC SBR
Format/Info : Advanced Audio Codec Low Complexity with Spectral Band Replication
Commercial name : HE-AAC
Format settings : Explicit
Codec ID : A_AAC-2
Duration : 1 h 49 min
Bit rate : 80.0 kb/s
Channel(s) : 2 channels
Channel layout : L R
Sampling rate : 48.0 kHz
Frame rate : 23.438 FPS (2048 SPF)
Compression mode : Lossy
Stream size : 62.5 MiB (0%)
Title : Commentary by writer/director/producer Robert Eggers
Language : English
Default : No
Forced : No

Text #1

ID : 4
Format : UTF-8
Codec ID : S_TEXT/UTF8
Codec ID/Info : UTF-8 Plain Text
Duration : 1 h 36 min
Bit rate : 32 b/s
Count of elements : 739
Stream size : 22.7 KiB (0%)
Language : English
Default : No
Forced : No

Text #2

ID : 5
Format : UTF-8
Codec ID : S_TEXT/UTF8
Codec ID/Info : UTF-8 Plain Text
Duration : 1 h 45 min
Bit rate : 37 b/s
Count of elements : 1024
Stream size : 28.9 KiB (0%)
Title : SDH
Language : English
Default : No
Forced : No

Text #3

ID : 6
Format : UTF-8
Codec ID : S_TEXT/UTF8
Codec ID/Info : UTF-8 Plain Text
Duration : 1 h 41 min
Bit rate : 31 b/s
Count of elements : 788
Stream size : 23.4 KiB (0%)
Language : Spanish
Default : No
Forced : No

Menu

00:00:00.000 : en:Chapter 01
00:06:49.534 : en:Chapter 02
00:11:47.957 : en:Chapter 03
00:13:44.949 : en:Chapter 04
00:19:52.900 : en:Chapter 05
00:25:33.949 : en:Chapter 06
00:29:54.793 : en:Chapter 07
00:36:23.181 : en:Chapter 08
00:41:28.653 : en:Chapter 09
00:51:00.307 : en:Chapter 10
00:55:48.303 : en:Chapter 11
01:03:43.695 : en:Chapter 12
01:09:40.718 : en:Chapter 13
01:19:01.820 : en:Chapter 14
01:24:46.707 : en:Chapter 15
01:39:42.602 : en:Chapter 16