General

Unique ID : 244282869727218323862509756313274181130 (0xB7C72B5BE353E9E4BA64A6013F50660A)
Complete name : /home/30nama/movies/t/The_Lighthouse_2019_1080p_BluRay_REMUX_DTS_EPSiLON_30NAMA.mkv
Format : Matroska
Format version : Version 4
File size : 29.5 GiB
Duration : 1 h 49 min
Overall bit rate mode : Variable
Overall bit rate : 38.7 Mb/s
Movie name : The Lighthouse (2019)
Encoded date : UTC 2020-01-03 02:55:57
Writing application : mkvmerge v41.0.0 ('Smarra') 64-bit
Writing library : libebml v1.3.9 + libmatroska v1.5.2
IMDB : tt7984734
TMDB : movie/503919

Video

ID : 1
Format : AVC
Format/Info : Advanced Video Codec
Format profile : High@L4.1
Format settings : CABAC / 4 Ref Frames
Format settings, CABAC : Yes
Format settings, ReFrames : 4 frames
Codec ID : V_MPEG4/ISO/AVC
Duration : 1 h 49 min
Bit rate mode : Variable
Bit rate : 34.7 Mb/s
Maximum bit rate : 37.0 Mb/s
Width : 1 920 pixels
Height : 1 080 pixels
Display aspect ratio : 16:9
Frame rate mode : Constant
Frame rate : 23.976 (24000/1001) FPS
Color space : YUV
Chroma subsampling : 4:2:0
Bit depth : 8 bits
Scan type : Progressive
Bits/(Pixel*Frame) : 0.699
Stream size : 26.5 GiB (90%)
Title : MPEG-4 AVC Video / 35935 kbps / 1080p / 23.976 fps / 16:9 / High Profile 4.1
Language : English
Default : Yes
Forced : No

Audio #1

ID : 2
Format : DTS XLL
Format/Info : Digital Theater Systems
Commercial name : DTS-HD Master Audio
Codec ID : A_DTS
Duration : 1 h 49 min
Bit rate mode : Variable
Bit rate : 3 762 kb/s
Channel(s) : 6 channels
Channel layout : C L R Ls Rs LFE
Sampling rate : 48.0 kHz
Frame rate : 93.750 FPS (512 SPF)
Bit depth : 24 bits
Compression mode : Lossless
Stream size : 2.87 GiB (10%)
Title : DTS-HD Master Audio / 5.1 / 48 kHz / 3762 kbps / 24-bit
Language : English
Default : Yes
Forced : No

Audio #2

ID : 3
Format : AC-3
Format/Info : Audio Coding 3
Commercial name : Dolby Digital
Codec ID : A_AC3
Duration : 1 h 49 min
Bit rate mode : Constant
Bit rate : 192 kb/s
Channel(s) : 2 channels
Channel layout : L R
Sampling rate : 48.0 kHz
Frame rate : 31.250 FPS (1536 SPF)
Bit depth : 16 bits
Compression mode : Lossy
Stream size : 150 MiB (0%)
Title : Commentary by writer/director/producer Robert Eggers
Language : English
Service kind : Complete Main
Default : No
Forced : No

Text #1

ID : 4
Format : PGS
Codec ID : S_HDMV/PGS
Codec ID/Info : Picture based subtitle format used on BDs/HD-DVDs
Duration : 1 h 45 min
Bit rate : 26.3 kb/s
Count of elements : 2052
Stream size : 19.9 MiB (0%)
Title : SDH
Language : English
Default : No
Forced : No

Text #2

ID : 5
Format : PGS
Codec ID : S_HDMV/PGS
Codec ID/Info : Picture based subtitle format used on BDs/HD-DVDs
Duration : 1 h 41 min
Bit rate : 21.5 kb/s
Count of elements : 1578
Stream size : 15.6 MiB (0%)
Title : Latin American
Language : Spanish
Default : No
Forced : No

Menu

00:00:00.000 : en:Chapter 1
00:06:49.534 : en:Chapter 2
00:11:47.957 : en:Chapter 3
00:13:44.949 : en:Chapter 4
00:19:52.900 : en:Chapter 5
00:25:33.949 : en:Chapter 6
00:29:54.793 : en:Chapter 7
00:36:23.181 : en:Chapter 8
00:41:28.653 : en:Chapter 9
00:51:00.307 : en:Chapter 10
00:55:48.303 : en:Chapter 11
01:03:43.695 : en:Chapter 12
01:09:40.718 : en:Chapter 13
01:19:01.820 : en:Chapter 14
01:24:46.707 : en:Chapter 15
01:39:42.602 : en:Chapter 16