General

Unique ID : 30266249671223972091058336905982287512 (0x16C51151D005EAEEC9954600BD6A9E98)
Complete name : /home/30nama/movies/t/The_Lighthouse_2019_1080p_BrRip_PaHe_30NAMA.mkv
Format : Matroska
Format version : Version 4
File size : 2.53 GiB
Duration : 1 h 49 min
Overall bit rate : 3 318 kb/s
Movie name : The Lighthouse (2019) - Pahe.in
Encoded date : UTC 2020-01-03 05:21:47
Writing application : mkvmerge v24.0.0 ('Beyond The Pale') 64-bit
Writing library : libebml v1.3.6 + libmatroska v1.4.9
Cover : Yes
Attachments : cover.jpg
Encoded by : Pahe.in? Team

Video

ID : 1
Format : AVC
Format/Info : Advanced Video Codec
Format profile : High@L4.1
Format settings : CABAC / 5 Ref Frames
Format settings, CABAC : Yes
Format settings, ReFrames : 5 frames
Codec ID : V_MPEG4/ISO/AVC
Duration : 1 h 49 min
Bit rate : 2 920 kb/s
Width : 1 296 pixels
Height : 1 080 pixels
Display aspect ratio : 1.200
Frame rate mode : Constant
Frame rate : 23.976 (24000/1001) FPS
Color space : YUV
Chroma subsampling : 4:2:0
Bit depth : 8 bits
Scan type : Progressive
Bits/(Pixel*Frame) : 0.087
Stream size : 2.23 GiB (88%)
Writing library : x264 core 155 r2901 7d0ff22
Encoding settings : cabac=1 / ref=5 / deblock=1:-3:-3 / analyse=0x3:0x133 / me=umh / subme=10 / psy=1 / psy_rd=1.00:0.15 / mixed_ref=1 / me_range=48 / chroma_me=1 / trellis=2 / 8x8dct=1 / cqm=0 / deadzone=21,11 / fast_pskip=0 / chroma_qp_offset=-3 / threads=18 / lookahead_threads=3 / sliced_threads=0 / nr=0 / decimate=0 / interlaced=0 / bluray_compat=0 / constrained_intra=0 / bframes=8 / b_pyramid=2 / b_adapt=2 / b_bias=0 / direct=3 / weightb=1 / open_gop=0 / weightp=2 / keyint=250 / keyint_min=23 / scenecut=40 / intra_refresh=0 / rc_lookahead=60 / rc=crf / mbtree=0 / crf=24.5 / qcomp=0.60 / qpmin=0 / qpmax=69 / qpstep=4 / vbv_maxrate=33500 / vbv_bufsize=30000 / crf_max=0.0 / nal_hrd=none / filler=0 / ip_ratio=1.30 / pb_ratio=1.20 / aq=3:0.80
Default : Yes
Forced : No

Audio

ID : 2
Format : AC-3
Format/Info : Audio Coding 3
Commercial name : Dolby Digital
Codec ID : A_AC3
Duration : 1 h 49 min
Bit rate mode : Constant
Bit rate : 384 kb/s
Channel(s) : 6 channels
Channel layout : L R C LFE Ls Rs
Sampling rate : 48.0 kHz
Frame rate : 31.250 FPS (1536 SPF)
Bit depth : 16 bits
Compression mode : Lossy
Stream size : 300 MiB (12%)
Language : English
Service kind : Complete Main
Default : No
Forced : No

Text

ID : 3
Format : PGS
Muxing mode : zlib
Codec ID : S_HDMV/PGS
Codec ID/Info : Picture based subtitle format used on BDs/HD-DVDs
Duration : 1 h 45 min
Bit rate : 26.3 kb/s
Count of elements : 2052
Stream size : 19.9 MiB (1%)
Language : English
Default : Yes
Forced : No

Menu

00:00:00.000 : en:Chapter 01
00:06:49.534 : en:Chapter 02
00:11:47.957 : en:Chapter 03
00:13:44.949 : en:Chapter 04
00:19:52.900 : en:Chapter 05
00:25:33.949 : en:Chapter 06
00:29:54.793 : en:Chapter 07
00:36:23.181 : en:Chapter 08
00:41:28.653 : en:Chapter 09
00:51:00.307 : en:Chapter 10
00:55:48.303 : en:Chapter 11
01:03:43.695 : en:Chapter 12
01:09:40.718 : en:Chapter 13
01:19:01.820 : en:Chapter 14
01:24:46.707 : en:Chapter 15
01:39:42.602 : en:Chapter 16