General

Unique ID : 335230379946333662923156783948186854570 (0xFC3305CFB6787BE8CC2AB67A467524AA)
Complete name : /home/30nama/movies/t/The_Lighthouse_2019_10bit_720p_x265_BrRip_6CH_PSA_30NAMA.mkv
Format : Matroska
Format version : Version 4
File size : 723 MiB
Duration : 1 h 49 min
Overall bit rate : 925 kb/s
Movie name : PSArips.com | The.Lighthouse.2019.720p.10bit.BluRay.6CH.x265.HEVC-PSA
Encoded date : UTC 2020-01-03 16:26:17
Writing application : mkvmerge v42.0.0 ('Overtime') 64-bit
Writing library : libebml v1.3.10 + libmatroska v1.5.2

Video

ID : 1
Format : HEVC
Format/Info : High Efficiency Video Coding
Format profile : Main 10@L3.1@Main
Codec ID : V_MPEGH/ISO/HEVC
Duration : 1 h 49 min
Bit rate : 722 kb/s
Width : 864 pixels
Height : 720 pixels
Display aspect ratio : 1.200
Frame rate mode : Constant
Frame rate : 23.976 (24000/1001) FPS
Color space : YUV
Chroma subsampling : 4:2:0
Bit depth : 10 bits
Bits/(Pixel*Frame) : 0.048
Stream size : 564 MiB (78%)
Default : Yes
Forced : No

Audio

ID : 2
Format : AAC LC SBR
Format/Info : Advanced Audio Codec Low Complexity with Spectral Band Replication
Commercial name : HE-AAC
Format settings : Explicit
Codec ID : A_AAC-2
Duration : 1 h 49 min
Bit rate : 201 kb/s
Channel(s) : 6 channels
Channel layout : C L R Ls Rs LFE
Sampling rate : 48.0 kHz
Frame rate : 23.438 FPS (2048 SPF)
Compression mode : Lossy
Delay relative to video : 23 ms
Stream size : 157 MiB (22%)
Language : English
Default : Yes
Forced : No

Text

ID : 3
Format : UTF-8
Codec ID : S_TEXT/UTF8
Codec ID/Info : UTF-8 Plain Text
Duration : 1 h 37 min
Bit rate : 33 b/s
Count of elements : 764
Stream size : 23.6 KiB (0%)
Language : English
Default : Yes
Forced : No

Menu

00:00:00.000 : :Chapter 1
00:06:49.600 : :Chapter 2
00:11:48.000 : :Chapter 3
00:13:45.000 : :Chapter 4
00:19:53.000 : :Chapter 5
00:25:34.000 : :Chapter 6
00:29:54.800 : :Chapter 7
00:36:23.200 : :Chapter 8
00:41:28.800 : :Chapter 9
00:51:00.400 : :Chapter 10
00:55:48.400 : :Chapter 11
01:03:43.800 : :Chapter 12
01:09:40.800 : :Chapter 13
01:19:02.000 : :Chapter 14
01:24:47.000 : :Chapter 15
01:39:42.800 : :Chapter 16