General

Unique ID : 172205945626428108655744549386829715712 (0x818DA8A26BBE2E14863D268CE8145900)
Complete name : /home/30nama/movies/t/The_Lord_of_the_Rings_The_Fellowship_of_the_Ring_2001_EXTENDED_1080p_BluRay_AdiT_30NAMA.mkv
Format : Matroska
Format version : Version 4
File size : 9.47 GiB
Duration : 3 h 48 min
Overall bit rate : 5 939 kb/s
Movie name : The Lord of the Rings 1 - The Fellowship of the Ring (2001) EXTENDED 1080p Bluray AC3 x264 - AdiT
Encoded date : UTC 2015-10-22 10:42:21
Writing application : mkvmerge v8.5.1 ('Where you lead I will follow') 64bit
Writing library : libebml v1.3.3 + libmatroska v1.4.4

Video

ID : 1
Format : AVC
Format/Info : Advanced Video Codec
Format profile : High@L4.1
Format settings : CABAC / 5 Ref Frames
Format settings, CABAC : Yes
Format settings, ReFrames : 5 frames
Codec ID : V_MPEG4/ISO/AVC
Duration : 3 h 48 min
Bit rate : 5 298 kb/s
Width : 1 920 pixels
Height : 800 pixels
Display aspect ratio : 2.40:1
Frame rate mode : Constant
Frame rate : 23.976 (24000/1001) FPS
Color space : YUV
Chroma subsampling : 4:2:0
Bit depth : 8 bits
Scan type : Progressive
Bits/(Pixel*Frame) : 0.144
Stream size : 8.44 GiB (89%)
Writing library : x264 core 146 r2538 121396c
Encoding settings : cabac=1 / ref=5 / deblock=1:-3:-3 / analyse=0x3:0x113 / me=umh / subme=10 / psy=1 / psy_rd=1.00:0.15 / mixed_ref=1 / me_range=64 / chroma_me=1 / trellis=2 / 8x8dct=1 / cqm=0 / deadzone=21,11 / fast_pskip=0 / chroma_qp_offset=-3 / threads=12 / lookahead_threads=2 / sliced_threads=0 / nr=0 / decimate=0 / interlaced=0 / bluray_compat=0 / constrained_intra=0 / bframes=9 / b_pyramid=2 / b_adapt=2 / b_bias=0 / direct=1 / weightb=1 / open_gop=0 / weightp=2 / keyint=240 / keyint_min=23 / scenecut=40 / intra_refresh=0 / rc_lookahead=240 / rc=crf / mbtree=1 / crf=20.6 / qcomp=0.60 / qpmin=10 / qpmax=51 / qpstep=4 / vbv_maxrate=36000 / vbv_bufsize=42000 / crf_max=0.0 / nal_hrd=none / filler=0 / ip_ratio=1.40 / aq=1:1.00
Language : English
Default : Yes
Forced : No
Color range : Limited
Color primaries : BT.709
Transfer characteristics : BT.709
Matrix coefficients : BT.709

Audio

ID : 2
Format : AC-3
Format/Info : Audio Coding 3
Commercial name : Dolby Digital
Codec ID : A_AC3
Duration : 3 h 48 min
Bit rate mode : Constant
Bit rate : 640 kb/s
Channel(s) : 6 channels
Channel layout : L R C LFE Ls Rs
Sampling rate : 48.0 kHz
Frame rate : 31.250 FPS (1536 SPF)
Bit depth : 16 bits
Compression mode : Lossy
Stream size : 1.02 GiB (11%)
Language : English
Service kind : Complete Main
Default : Yes
Forced : No

Text #1

ID : 3
Format : UTF-8
Codec ID : S_TEXT/UTF8
Codec ID/Info : UTF-8 Plain Text
Duration : 3 h 21 min
Bit rate : 1 b/s
Count of elements : 79
Stream size : 2.45 KiB (0%)
Title : Forced
Language : English
Default : Yes
Forced : Yes

Text #2

ID : 4
Format : UTF-8
Codec ID : S_TEXT/UTF8
Codec ID/Info : UTF-8 Plain Text
Duration : 3 h 21 min
Bit rate : 38 b/s
Count of elements : 1779
Stream size : 57.0 KiB (0%)
Title : Full
Language : English
Default : No
Forced : No

Menu

00:00:00.000 : en:Prologue: One Ring to Rule Them All...
00:07:36.790 : en:Concerning Hobbits
00:10:35.552 : en:The Shire
00:15:39.856 : en:Very Old Friends
00:19:58.489 : en:A Long-expected Party
00:25:32.614 : en:Farewell Dear Bilbo
00:29:57.379 : en:Keep It Secret, Keep It Safe
00:32:10.679 : en:The Account of Isildur
00:34:51.798 : en:At The Green Dragon
00:36:18.176 : en:The Shadow of the Past
00:45:04.160 : en:The Passing of the Elves
00:46:44.301 : en:Saruman the White
00:51:21.412 : en:A Short Cut to Mushrooms
00:55:12.434 : en:Bucklebury Ferry
00:57:30.072 : en:At the Sign of The Prancing Pony
01:03:31.516 : en:The Nazg?l
01:07:16.115 : en:The Midgewater Marshes
01:08:53.588 : en:The Spoiling of Isengard
01:10:35.940 : en:A Knife in the Dark
01:15:15.386 : en:The Caverns of Isengard
01:17:46.620 : en:Flight to the Ford
01:24:11.546 : en:Rivendell
01:26:12.501 : en:Many Meetings
01:29:41.585 : en:The Fate of the Ring
01:33:14.672 : en:The Sword That Was Broken
01:35:54.081 : en:The Evenstar
01:37:32.972 : en:The Council of Elrond
01:45:38.374 : en:Gilraen's Memorial
01:46:52.197 : en:Bilbo's Gifts
01:48:35.592 : en:The Departure of the Fellowship
01:49:53.003 : en:The Ring Goes South
01:52:58.814 : en:The Pass of Caradhras
01:57:45.100 : en:Moria
02:04:10.485 : en:A Journey in the Dark
02:10:40.833 : en:Balin's Tomb
02:20:05.564 : en:The Bridge of Khazad-d?m
02:29:47.020 : en:Lothl?rien
02:32:59.670 : en:Caras Galadhon
02:40:16.690 : en:The Mirror of Galadriel
02:45:56.697 : en:The Fighting Uruk-hai
02:47:38.048 : en:Farewell to L?rien
02:53:00.578 : en:The Great River
02:57:52.829 : en:Parth Galen
03:04:20.591 : en:The Breaking of the Fellowship
03:11:36.527 : en:The Departure of Boromir
03:14:18.855 : en:The Road Goes Ever On...
03:20:37.025 : en:Credits