General

Unique ID : 211315426439118777139004828680479495360 (0x9EF9DEE96826879E85E62E0BEDA2D4C0)
Complete name : /home/30nama/movies/t/The_Lord_of_the_Rings_The_Fellowship_of_the_Ring_2001_EXTENDED_1080p_BluRay_Full_HD_DTS_HiDt_30NAMA.mkv
Format : Matroska
Format version : Version 2
File size : 21.9 GiB
Duration : 3 h 48 min
Overall bit rate mode : Variable
Overall bit rate : 13.8 Mb/s
Encoded date : UTC 2011-07-03 12:11:34
Writing application : mkvmerge v3.4.0 ('Rapunzel') built on May 15 2010 09:38:20
Writing library : libebml v0.8.0 + libmatroska v0.9.0

Video

ID : 1
Format : AVC
Format/Info : Advanced Video Codec
Format profile : High@L4.1
Format settings : CABAC / 5 Ref Frames
Format settings, CABAC : Yes
Format settings, ReFrames : 5 frames
Codec ID : V_MPEG4/ISO/AVC
Duration : 3 h 48 min
Bit rate : 12.0 Mb/s
Width : 1 920 pixels
Height : 800 pixels
Display aspect ratio : 2.40:1
Frame rate mode : Constant
Frame rate : 23.976 FPS
Color space : YUV
Chroma subsampling : 4:2:0
Bit depth : 8 bits
Scan type : Progressive
Bits/(Pixel*Frame) : 0.326
Stream size : 18.7 GiB (85%)
Title : x264
Writing library : x264 core 115 r1995 c1e60b9
Encoding settings : cabac=1 / ref=5 / deblock=1:-1:-2 / analyse=0x3:0x113 / me=umh / subme=10 / psy=1 / psy_rd=1.05:0.00 / mixed_ref=1 / me_range=64 / chroma_me=1 / trellis=2 / 8x8dct=1 / cqm=0 / deadzone=21,11 / fast_pskip=0 / chroma_qp_offset=-2 / threads=12 / sliced_threads=0 / nr=0 / decimate=1 / interlaced=0 / bluray_compat=0 / constrained_intra=0 / bframes=6 / b_pyramid=2 / b_adapt=2 / b_bias=0 / direct=3 / weightb=1 / open_gop=0 / weightp=2 / keyint=250 / keyint_min=23 / scenecut=40 / intra_refresh=0 / rc_lookahead=250 / rc=2pass / mbtree=1 / bitrate=12020 / ratetol=1.0 / qcomp=0.60 / qpmin=0 / qpmax=69 / qpstep=4 / cplxblur=20.0 / qblur=0.5 / ip_ratio=1.40 / aq=1:0.90
Language : English
Default : No
Forced : No

Audio #1

ID : 2
Format : DTS ES XXCH
Format/Info : Digital Theater Systems
Commercial name : DTS-ES Discrete
Codec ID : A_DTS
Duration : 3 h 48 min
Bit rate mode : Constant
Bit rate : 1 509 kb/s
Channel(s) : 6 channels
Channel(s)_Original : 7 channels
Channel layout : C L R Ls Rs Cb LFE
Sampling rate : 48.0 kHz
Frame rate : 93.750 FPS (512 SPF)
Bit depth : 24 bits
Compression mode : Lossy
Delay relative to video : 11 ms
Stream size : 2.41 GiB (11%)
Title : DTS-ES 6.1
Language : English
Default : No
Forced : No

Audio #2

ID : 3
Format : Vorbis
Format settings, Floor : 1
Codec ID : A_VORBIS
Duration : 3 h 48 min
Bit rate mode : Variable
Bit rate : 64.0 kb/s
Channel(s) : 2 channels
Sampling rate : 48.0 kHz
Compression mode : Lossy
Stream size : 104 MiB (0%)
Title : Commentary 1
Writing library : libVorbis (Schaufenugget) (20101101 (Schaufenugget))
Default : No
Forced : No

Audio #3

ID : 4
Format : Vorbis
Format settings, Floor : 1
Codec ID : A_VORBIS
Duration : 3 h 48 min
Bit rate mode : Variable
Bit rate : 64.0 kb/s
Channel(s) : 2 channels
Sampling rate : 48.0 kHz
Compression mode : Lossy
Stream size : 104 MiB (0%)
Title : Commentary 2
Writing library : libVorbis (Schaufenugget) (20101101 (Schaufenugget))
Default : No
Forced : No

Audio #4

ID : 5
Format : Vorbis
Format settings, Floor : 1
Codec ID : A_VORBIS
Duration : 3 h 48 min
Bit rate mode : Variable
Bit rate : 64.0 kb/s
Channel(s) : 2 channels
Sampling rate : 48.0 kHz
Compression mode : Lossy
Stream size : 104 MiB (0%)
Title : Commentary 3
Writing library : libVorbis (Schaufenugget) (20101101 (Schaufenugget))
Default : No
Forced : No

Audio #5

ID : 6
Format : Vorbis
Format settings, Floor : 1
Codec ID : A_VORBIS
Duration : 3 h 48 min
Bit rate mode : Variable
Bit rate : 64.0 kb/s
Channel(s) : 2 channels
Sampling rate : 48.0 kHz
Compression mode : Lossy
Stream size : 104 MiB (0%)
Title : Commentary 4
Writing library : libVorbis (Schaufenugget) (20101101 (Schaufenugget))
Default : No
Forced : No

Text #1

ID : 7
Format : UTF-8
Codec ID : S_TEXT/UTF8
Codec ID/Info : UTF-8 Plain Text
Title : Foreign Only
Language : English
Default : No
Forced : No

Text #2

ID : 8
Format : UTF-8
Codec ID : S_TEXT/UTF8
Codec ID/Info : UTF-8 Plain Text
Language : English
Default : No
Forced : No

Text #3

ID : 9
Format : UTF-8
Codec ID : S_TEXT/UTF8
Codec ID/Info : UTF-8 Plain Text
Language : Bulgarian
Default : No
Forced : No

Text #4

ID : 10
Format : UTF-8
Codec ID : S_TEXT/UTF8
Codec ID/Info : UTF-8 Plain Text
Language : Finnish
Default : No
Forced : No

Text #5

ID : 11
Format : UTF-8
Codec ID : S_TEXT/UTF8
Codec ID/Info : UTF-8 Plain Text
Language : French
Default : No
Forced : No

Text #6

ID : 12
Format : UTF-8
Codec ID : S_TEXT/UTF8
Codec ID/Info : UTF-8 Plain Text
Language : Norwegian
Default : No
Forced : No

Text #7

ID : 13
Format : UTF-8
Codec ID : S_TEXT/UTF8
Codec ID/Info : UTF-8 Plain Text
Language : Polish
Default : No
Forced : No

Text #8

ID : 14
Format : UTF-8
Codec ID : S_TEXT/UTF8
Codec ID/Info : UTF-8 Plain Text
Title : BR
Language : Portuguese
Default : No
Forced : No

Text #9

ID : 15
Format : UTF-8
Codec ID : S_TEXT/UTF8
Codec ID/Info : UTF-8 Plain Text
Language : Romanian
Default : No
Forced : No

Text #10

ID : 16
Format : UTF-8
Codec ID : S_TEXT/UTF8
Codec ID/Info : UTF-8 Plain Text
Language : Swedish
Default : No
Forced : No

Menu

00:00:00.000 : en:1. Prologue: One Ring to Rule Them All...
00:07:36.789 : en:2. Concerning Hobbits
00:10:35.551 : en:3. The Shire
00:15:39.855 : en:4. Very Old Friends
00:19:58.488 : en:5. A Long-expected Party
00:25:32.614 : en:6. Farewell Dear Bilbo
00:29:57.378 : en:7. Keep It Secret, Keep It Safe
00:32:10.678 : en:8. The Account of Isildur
00:34:51.798 : en:9. At The Green Dragon
00:36:18.176 : en:10. The Shadow of the Past
00:45:04.159 : en:11. The Passing of the Elves
00:46:44.301 : en:12. Saruman the White
00:51:21.411 : en:13. A Short Cut to Mushrooms
00:55:12.434 : en:14. Bucklebury Ferry
00:57:30.071 : en:15. At the Sign of The Prancing Pony
01:03:31.516 : en:16. The Nazg?l
01:07:16.115 : en:17. The Midgewater Marshes
01:08:53.587 : en:18. The Spoiling of Isengard
01:10:35.940 : en:19. A Knife in the Dark
01:15:15.385 : en:20. The Caverns of Isengard
01:17:46.620 : en:21. Flight to the Ford
01:24:11.546 : en:22. Rivendell
01:26:12.500 : en:23. Many Meetings
01:29:41.584 : en:24. The Fate of the Ring
01:33:14.672 : en:25. The Sword That Was Broken
01:35:54.081 : en:26. The Evenstar
01:37:32.972 : en:27. The Council of Elrond
01:45:38.374 : en:28. Gilraen's Memorial
01:46:52.197 : en:29. Bilbo's Gifts
01:48:35.592 : en:30. The Departure of the Fellowship
01:49:53.003 : en:31. The Ring Goes South
01:52:58.814 : en:32. The Pass of Caradhras
01:57:45.100 : en:33. Moria
02:04:10.485 : en:34. A Journey in the Dark
02:10:40.833 : en:35. Balin's Tomb
02:20:05.564 : en:36. The Bridge of Khazad-d?m
02:29:47.020 : en:37. Lothl?rien
02:32:59.670 : en:38. Caras Galadhon
02:40:16.690 : en:39. The Mirror of Galadriel
02:45:56.697 : en:40. The Fighting Uruk-hai
02:47:38.048 : en:41. Farewell to L?rien
02:53:00.578 : en:42. The Great River
02:57:52.829 : en:43. Parth Galen
03:04:20.591 : en:44. The Breaking of the Fellowship
03:11:36.527 : en:45. The Departure of Boromir
03:14:18.855 : en:46. The Road Goes Ever On...
03:20:37.025 : en:47. Credits
03:28:17.527 : en:48. Official Fan Club Credits