General

Unique ID : 137886112129166438233228109654268311696 (0x67BBE633B4B75A796FBACE032E43F890)
Complete name : /home/30nama/movies/t/The_Lord_of_the_Rings_The_Fellowship_of_the_Ring_2001_EXTENDED_10bit_1080p_x265_BluRay_6CH_MkvCage_30NAMA.mkv
Format : Matroska
Format version : Version 4
File size : 5.40 GiB
Duration : 3 h 48 min
Overall bit rate : 3 389 kb/s
Movie name : The.Lord.of.the.Rings.The.Fellowship.of.the.Ring.2001.EXTENDED.1080p.BluRay.10bit.HEVC.6CH.MkvCage.ws
Encoded date : UTC 2019-02-24 17:21:26
Writing application : mkvmerge v30.1.0 ('Forever And More') 64-bit
Writing library : libebml v1.3.6 + libmatroska v1.4.9
Cover : Yes
Attachments : cover.jpg

Video

ID : 1
Format : HEVC
Format/Info : High Efficiency Video Coding
Format profile : Main 10@L4@Main
Codec ID : V_MPEGH/ISO/HEVC
Duration : 3 h 48 min
Bit rate : 3 195 kb/s
Width : 1 920 pixels
Height : 800 pixels
Display aspect ratio : 2.40:1
Frame rate mode : Constant
Frame rate : 23.976 (24000/1001) FPS
Color space : YUV
Chroma subsampling : 4:2:0
Bit depth : 10 bits
Bits/(Pixel*Frame) : 0.087
Stream size : 5.09 GiB (94%)
Writing library : x265 2.9+2-7e978ed93d60:[Windows][GCC 8.2.0][64 bit] 10bit
Encoding settings : cpuid=1111039 / frame-threads=5 / numa-pools=24,24 / wpp / no-pmode / no-pme / no-psnr / no-ssim / log-level=2 / input-csp=1 / input-res=1920x800 / interlace=0 / total-frames=328249 / level-idc=0 / high-tier=1 / uhd-bd=0 / ref=3 / no-allow-non-conformance / no-repeat-headers / annexb / no-aud / no-hrd / info / hash=0 / no-temporal-layers / open-gop / min-keyint=23 / keyint=250 / gop-lookahead=0 / bframes=4 / b-adapt=2 / b-pyramid / bframe-bias=0 / rc-lookahead=20 / lookahead-slices=5 / scenecut=40 / radl=0 / no-intra-refresh / ctu=64 / min-cu-size=8 / no-rect / no-amp / max-tu-size=32 / tu-inter-depth=1 / tu-intra-depth=1 / limit-tu=0 / rdoq-level=2 / dynamic-rd=0.00 / no-ssim-rd / signhide / no-tskip / nr-intra=0 / nr-inter=0 / no-constrained-intra / no-strong-intra-smoothing / max-merge=2 / limit-refs=3 / no-limit-modes / me=1 / subme=2 / merange=57 / temporal-mvp / weightp / no-weightb / no-analyze-src-pics / deblock=-2:-2 / no-sao / no-sao-non-deblock / rd=3 / no-early-skip / rskip / no-fast-intra / no-tskip-fast / no-cu-lossless / no-b-intra / no-splitrd-skip / rdpenalty=0 / psy-rd=2.00 / psy-rdoq=0.00 / no-rd-refine / no-lossless / cbqpoffs=0 / crqpoffs=0 / rc=abr / bitrate=3195 / qcomp=0.60 / qpstep=4 / stats-write=0 / stats-read=2 / cplxblur=20.0 / qblur=0.5 / ipratio=1.40 / pbratio=1.30 / aq-mode=1 / aq-strength=1.00 / cutree / zone-count=0 / no-strict-cbr / qg-size=32 / no-rc-grain / qpmax=69 / qpmin=0 / no-const-vbv / sar=0 / overscan=0 / videoformat=5 / range=0 / colorprim=2 / transfer=2 / colormatrix=2 / chromaloc=0 / display-window=0 / max-cll=0,0 / min-luma=0 / max-luma=1023 / log2-max-poc-lsb=8 / vui-timing-info / vui-hrd-info / slices=1 / no-opt-qp-pps / no-opt-ref-list-length-pps / no-multi-pass-opt-rps / scenecut-bias=0.05 / no-opt-cu-delta-qp / no-aq-motion / no-hdr / no-hdr-opt / no-dhdr10-opt / no-idr-recovery-sei / analysis-reuse-level=5 / scale-factor=0 / refine-intra=0 / refine-inter=0 / refine-mv=0 / no-limit-sao / ctu-info=0 / no-lowpass-dct / refine-mv-type=0 / copy-pic=1 / max-ausize-factor=1.0 / no-dynamic-refine / no-single-sei
Default : Yes
Forced : No

Audio

ID : 2
Format : AAC LC SBR
Format/Info : Advanced Audio Codec Low Complexity with Spectral Band Replication
Commercial name : HE-AAC
Format settings : Explicit
Codec ID : A_AAC-2
Duration : 3 h 48 min
Bit rate : 192 kb/s
Channel(s) : 6 channels
Channel layout : C L R Ls Rs LFE
Sampling rate : 48.0 kHz
Frame rate : 23.438 FPS (2048 SPF)
Compression mode : Lossy
Delay relative to video : 43 ms
Stream size : 313 MiB (6%)
Language : English
Default : Yes
Forced : No

Text #1

ID : 3
Format : UTF-8
Codec ID : S_TEXT/UTF8
Codec ID/Info : UTF-8 Plain Text
Duration : 3 h 19 min
Bit rate : 42 b/s
Count of elements : 1874
Stream size : 61.8 KiB (0%)
Title : HI
Language : English
Default : Yes
Forced : No

Text #2

ID : 4
Format : UTF-8
Codec ID : S_TEXT/UTF8
Codec ID/Info : UTF-8 Plain Text
Duration : 3 h 19 min
Bit rate : 40 b/s
Count of elements : 1790
Stream size : 58.6 KiB (0%)
Language : English
Default : No
Forced : No

Text #3

ID : 5
Format : UTF-8
Codec ID : S_TEXT/UTF8
Codec ID/Info : UTF-8 Plain Text
Duration : 2 h 59 min
Bit rate : 1 b/s
Count of elements : 72
Stream size : 2.30 KiB (0%)
Title : Foreign Parts
Language : English
Default : No
Forced : No

Menu

00:00:00.000 : en:Prologue: One Ring to Rule Them All...
00:07:36.790 : en:Concerning Hobbits
00:10:35.552 : en:The Shire
00:15:39.856 : en:Very Old Friends
00:19:58.489 : en:A Long-expected Party
00:25:32.614 : en:Farewell Dear Bilbo
00:29:57.379 : en:Keep It Secret, Keep It Safe
00:32:10.679 : en:The Account of Isildur
00:34:51.798 : en:At The Green Dragon
00:36:18.176 : en:The Shadow of the Past
00:45:04.160 : en:The Passing of the Elves
00:46:44.301 : en:Saruman the White
00:51:21.412 : en:A Short Cut to Mushrooms
00:55:12.434 : en:Bucklebury Ferry
00:57:30.072 : en:At the Sign of The Prancing Pony
01:03:31.516 : en:The Nazg?l
01:07:16.115 : en:The Midgewater Marshes
01:08:53.588 : en:The Spoiling of Isengard
01:10:35.940 : en:A Knife in the Dark
01:15:15.386 : en:The Caverns of Isengard
01:17:46.620 : en:Flight to the Ford
01:24:11.546 : en:Rivendell
01:26:12.501 : en:Many Meetings
01:29:41.585 : en:The Fate of the Ring
01:33:14.672 : en:The Sword That Was Broken
01:35:54.081 : en:The Evenstar
01:37:32.972 : en:The Council of Elrond
01:45:38.374 : en:Gilraen's Memorial
01:46:52.197 : en:Bilbo's Gifts
01:48:35.592 : en:The Departure of the Fellowship
01:49:53.003 : en:The Ring Goes South
01:52:58.814 : en:The Pass of Caradhras
01:57:45.100 : en:Moria
02:04:10.485 : en:A Journey in the Dark
02:10:40.833 : en:Balin's Tomb
02:20:05.564 : en:The Bridge of Khazad-d?m
02:29:47.020 : en:Lothl?rien
02:32:59.670 : en:Caras Galadhon
02:40:16.690 : en:The Mirror of Galadriel
02:45:56.697 : en:The Fighting Uruk-hai
02:47:38.048 : en:Farewell to L?rien
02:53:00.578 : en:The Great River
02:57:52.829 : en:Parth Galen
03:04:20.591 : en:The Breaking of the Fellowship
03:11:36.527 : en:The Departure of Boromir
03:14:18.855 : en:The Road Goes Ever On...
03:20:37.025 : en:Credits