General

Unique ID : 27238128810910763364690054428536438021 (0x147DDF6F346F6FC27F35D98DA7A97D05)
Complete name : /home/30nama/movies/t/The_Lord_of_the_Rings_The_Fellowship_of_the_Ring_2001_EXTENDED_10bit_1080p_x265_BluRay_AAC_6.1_Tigole_30NAMA.mkv
Format : Matroska
Format version : Version 4
File size : 8.63 GiB
Duration : 3 h 48 min
Overall bit rate : 5 414 kb/s
Encoded date : UTC 2018-07-30 06:59:34
Writing application : mkvmerge v25.0.0 ('Prog Noir') 64-bit
Writing library : libebml v1.3.6 + libmatroska v1.4.9

Video

ID : 1
Format : HEVC
Format/Info : High Efficiency Video Coding
Format profile : Main 10@L4@Main
Codec ID : V_MPEGH/ISO/HEVC
Duration : 3 h 48 min
Bit rate : 4 592 kb/s
Width : 1 920 pixels
Height : 800 pixels
Display aspect ratio : 2.40:1
Frame rate mode : Constant
Frame rate : 23.976 (24000/1001) FPS
Color space : YUV
Chroma subsampling : 4:2:0
Bit depth : 10 bits
Bits/(Pixel*Frame) : 0.125
Stream size : 7.32 GiB (85%)
Writing library : x265 2.8+40-0106f9f2f867:[Windows][GCC 7.3.0][64 bit] 10bit
Encoding settings : cpuid=1111039 / frame-threads=3 / numa-pools=8 / wpp / no-pmode / no-pme / no-psnr / no-ssim / log-level=2 / input-csp=1 / input-res=1920x800 / interlace=0 / total-frames=328418 / level-idc=0 / high-tier=1 / uhd-bd=0 / ref=4 / no-allow-non-conformance / no-repeat-headers / annexb / no-aud / no-hrd / info / hash=0 / no-temporal-layers / open-gop / min-keyint=23 / keyint=250 / gop-lookahead=0 / bframes=4 / b-adapt=2 / b-pyramid / bframe-bias=0 / rc-lookahead=25 / lookahead-slices=4 / scenecut=40 / radl=0 / no-intra-refresh / ctu=64 / min-cu-size=8 / rect / no-amp / max-tu-size=32 / tu-inter-depth=1 / tu-intra-depth=1 / limit-tu=0 / rdoq-level=2 / dynamic-rd=0.00 / no-ssim-rd / signhide / no-tskip / nr-intra=0 / nr-inter=0 / no-constrained-intra / strong-intra-smoothing / max-merge=3 / limit-refs=3 / limit-modes / me=3 / subme=3 / merange=57 / temporal-mvp / weightp / no-weightb / no-analyze-src-pics / deblock=0:0 / sao / no-sao-non-deblock / rd=4 / no-early-skip / rskip / no-fast-intra / no-tskip-fast / no-cu-lossless / no-b-intra / no-splitrd-skip / rdpenalty=0 / psy-rd=2.00 / psy-rdoq=1.00 / no-rd-refine / no-lossless / cbqpoffs=0 / crqpoffs=0 / rc=abr / bitrate=4592 / qcomp=0.60 / qpstep=4 / stats-write=0 / stats-read=2 / cplxblur=20.0 / qblur=0.5 / ipratio=1.40 / pbratio=1.30 / aq-mode=3 / aq-strength=1.00 / cutree / zone-count=0 / no-strict-cbr / qg-size=32 / no-rc-grain / qpmax=69 / qpmin=0 / no-const-vbv / sar=0 / overscan=0 / videoformat=5 / range=0 / colorprim=2 / transfer=2 / colormatrix=2 / chromaloc=0 / display-window=0 / max-cll=0,0 / min-luma=0 / max-luma=1023 / log2-max-poc-lsb=8 / vui-timing-info / vui-hrd-info / slices=1 / no-opt-qp-pps / no-opt-ref-list-length-pps / multi-pass-opt-rps / scenecut-bias=0.05 / no-opt-cu-delta-qp / aq-motion / no-hdr / no-hdr-opt / no-dhdr10-opt / no-idr-recovery-sei / analysis-reuse-level=5 / scale-factor=0 / refine-intra=0 / refine-inter=0 / refine-mv=0 / no-limit-sao / ctu-info=0 / no-lowpass-dct / refine-mv-type=0 / copy-pic=1 / max-ausize-factor=1.0 / no-dynamic-refine / no-single-sei
Default : Yes
Forced : No

Audio #1

ID : 2
Format : AAC LC
Format/Info : Advanced Audio Codec Low Complexity
Codec ID : A_AAC-2
Duration : 3 h 48 min
Bit rate : 529 kb/s
Channel(s) : 7 channels
Channel layout : C L R Ls Rs Cb LFE
Sampling rate : 48.0 kHz
Frame rate : 46.875 FPS (1024 SPF)
Compression mode : Lossy
Delay relative to video : 20 ms
Stream size : 871 MiB (10%)
Language : English
Default : Yes
Forced : No

Audio #2

ID : 3
Format : AAC LC SBR
Format/Info : Advanced Audio Codec Low Complexity with Spectral Band Replication
Commercial name : HE-AAC
Format settings : Explicit
Codec ID : A_AAC-2
Duration : 3 h 48 min
Bit rate : 66.2 kb/s
Channel(s) : 2 channels
Channel layout : L R
Sampling rate : 48.0 kHz
Frame rate : 23.438 FPS (2048 SPF)
Compression mode : Lossy
Delay relative to video : 40 ms
Stream size : 108 MiB (1%)
Title : Commentary - Director and Writers
Language : English
Default : No
Forced : No

Audio #3

ID : 4
Format : AAC LC SBR
Format/Info : Advanced Audio Codec Low Complexity with Spectral Band Replication
Commercial name : HE-AAC
Format settings : Explicit
Codec ID : A_AAC-2
Duration : 3 h 48 min
Bit rate : 66.2 kb/s
Channel(s) : 2 channels
Channel layout : L R
Sampling rate : 48.0 kHz
Frame rate : 23.438 FPS (2048 SPF)
Compression mode : Lossy
Delay relative to video : 40 ms
Stream size : 108 MiB (1%)
Title : Commentary - Design Team
Language : English
Default : No
Forced : No

Audio #4

ID : 5
Format : AAC LC SBR
Format/Info : Advanced Audio Codec Low Complexity with Spectral Band Replication
Commercial name : HE-AAC
Format settings : Explicit
Codec ID : A_AAC-2
Duration : 3 h 48 min
Bit rate : 66.2 kb/s
Channel(s) : 2 channels
Channel layout : L R
Sampling rate : 48.0 kHz
Frame rate : 23.438 FPS (2048 SPF)
Compression mode : Lossy
Delay relative to video : 40 ms
Stream size : 108 MiB (1%)
Title : Commentary - Production and Post-Production Teams
Language : English
Default : No
Forced : No

Audio #5

ID : 6
Format : AAC LC SBR
Format/Info : Advanced Audio Codec Low Complexity with Spectral Band Replication
Commercial name : HE-AAC
Format settings : Explicit
Codec ID : A_AAC-2
Duration : 3 h 48 min
Bit rate : 66.2 kb/s
Channel(s) : 2 channels
Channel layout : L R
Sampling rate : 48.0 kHz
Frame rate : 23.438 FPS (2048 SPF)
Compression mode : Lossy
Delay relative to video : 40 ms
Stream size : 108 MiB (1%)
Title : Commentary - Cast
Language : English
Default : No
Forced : No

Text #1

ID : 7
Format : VobSub
Muxing mode : zlib
Codec ID : S_VOBSUB
Codec ID/Info : Picture based subtitle format used on DVDs
Duration : 3 h 47 min
Bit rate : 6 148 b/s
Count of elements : 1811
Stream size : 10.0 MiB (0%)
Language : English
Default : No
Forced : No

Text #2

ID : 8
Format : PGS
Muxing mode : zlib
Codec ID : S_HDMV/PGS
Codec ID/Info : Picture based subtitle format used on BDs/HD-DVDs
Duration : 3 h 28 min
Bit rate : 4 014 b/s
Count of elements : 7436
Stream size : 5.98 MiB (0%)
Title : Commentary - Director and Writers
Language : English
Default : No
Forced : No

Text #3

ID : 9
Format : PGS
Muxing mode : zlib
Codec ID : S_HDMV/PGS
Codec ID/Info : Picture based subtitle format used on BDs/HD-DVDs
Duration : 3 h 27 min
Bit rate : 3 070 b/s
Count of elements : 4862
Stream size : 4.56 MiB (0%)
Title : Commentary - Design Team
Language : English
Default : No
Forced : No

Text #4

ID : 10
Format : PGS
Muxing mode : zlib
Codec ID : S_HDMV/PGS
Codec ID/Info : Picture based subtitle format used on BDs/HD-DVDs
Duration : 3 h 28 min
Bit rate : 4 998 b/s
Count of elements : 8668
Stream size : 7.44 MiB (0%)
Title : Commentary - Production and Post-Production Teams
Language : English
Default : No
Forced : No

Text #5

ID : 11
Format : PGS
Muxing mode : zlib
Codec ID : S_HDMV/PGS
Codec ID/Info : Picture based subtitle format used on BDs/HD-DVDs
Duration : 3 h 28 min
Bit rate : 6 384 b/s
Count of elements : 14292
Stream size : 9.53 MiB (0%)
Title : Commentary - Cast
Language : English
Default : No
Forced : No

Text #6

ID : 12
Format : VobSub
Muxing mode : zlib
Codec ID : S_VOBSUB
Codec ID/Info : Picture based subtitle format used on DVDs
Duration : 3 h 47 min
Bit rate : 5 923 b/s
Count of elements : 1734
Stream size : 9.65 MiB (0%)
Language : Portuguese
Default : No
Forced : No

Text #7

ID : 13
Format : VobSub
Muxing mode : zlib
Codec ID : S_VOBSUB
Codec ID/Info : Picture based subtitle format used on DVDs
Duration : 3 h 47 min
Bit rate : 5 672 b/s
Count of elements : 1716
Stream size : 9.24 MiB (0%)
Language : Spanish
Default : No
Forced : No

Menu

00:00:00.000 : en:Chapter 01
00:07:36.789 : en:Chapter 02
00:10:35.551 : en:Chapter 03
00:15:39.813 : en:Chapter 04
00:19:58.447 : en:Chapter 05
00:25:32.572 : en:Chapter 06
00:29:57.337 : en:Chapter 07
00:32:10.637 : en:Chapter 08
00:34:51.756 : en:Chapter 09
00:36:18.176 : en:Chapter 10
00:45:04.118 : en:Chapter 11
00:46:44.259 : en:Chapter 12
00:51:21.161 : en:Chapter 13
00:55:12.392 : en:Chapter 14
00:57:30.029 : en:Chapter 15
01:03:31.474 : en:Chapter 16
01:07:16.073 : en:Chapter 17
01:08:53.420 : en:Chapter 18
01:10:35.898 : en:Chapter 19
01:15:15.010 : en:Chapter 20
01:17:46.578 : en:Chapter 21
01:24:11.546 : en:Chapter 22
01:26:12.458 : en:Chapter 23
01:29:41.542 : en:Chapter 24
01:33:14.297 : en:Chapter 25
01:35:54.039 : en:Chapter 26
01:37:32.930 : en:Chapter 27
01:45:43.420 : en:Chapter 28
01:46:59.204 : en:Chapter 29
01:48:42.599 : en:Chapter 30
01:50:00.010 : en:Chapter 31
01:53:05.820 : en:Chapter 32
01:57:52.106 : en:Chapter 33
02:04:17.325 : en:Chapter 34
02:10:47.840 : en:Chapter 35
02:20:12.279 : en:Chapter 36
02:29:53.735 : en:Chapter 37
02:33:06.636 : en:Chapter 38
02:40:23.364 : en:Chapter 39
02:46:03.370 : en:Chapter 40
02:47:44.805 : en:Chapter 41
02:53:07.544 : en:Chapter 42
02:57:59.794 : en:Chapter 43
03:04:27.598 : en:Chapter 44
03:11:43.533 : en:Chapter 45
03:14:25.821 : en:Chapter 46
03:20:44.073 : en:Chapter 47
03:28:24.533 : en:Chapter 48