General

Unique ID : 249869902192395642305253328095083902535 (0xBBFB3153B216F0AF815FDE07157E3647)
Complete name : /home/30nama/movies/t/The_Return_of_Jafar_1994_720p_BrRip_30nama_30NAMA.mkv
Format : Matroska
Format version : Version 4
File size : 613 MiB
Duration : 1 h 9 min
Overall bit rate : 1 238 kb/s
Encoded date : UTC 2020-10-01 01:21:22
Writing application : mkvmerge v9.6.0 ('Slave To Your Mind') 64bit
Writing library : libebml v1.3.4 + libmatroska v1.4.5

Video

ID : 1
Format : AVC
Format/Info : Advanced Video Codec
Format profile : High@L4.1
Format settings : CABAC / 5 Ref Frames
Format settings, CABAC : Yes
Format settings, ReFrames : 5 frames
Codec ID : V_MPEG4/ISO/AVC
Duration : 1 h 9 min
Bit rate : 1 100 kb/s
Width : 1 280 pixels
Height : 720 pixels
Display aspect ratio : 16:9
Frame rate mode : Constant
Frame rate : 23.976 (24000/1001) FPS
Color space : YUV
Chroma subsampling : 4:2:0
Bit depth : 8 bits
Scan type : Progressive
Bits/(Pixel*Frame) : 0.050
Stream size : 543 MiB (89%)
Writing library : x264 core 148 r2721 72d53ab
Encoding settings : cabac=1 / ref=5 / deblock=1:-1:-1 / analyse=0x3:0x113 / me=hex / subme=8 / psy=1 / psy_rd=1.00:0.00 / mixed_ref=1 / me_range=16 / chroma_me=1 / trellis=2 / 8x8dct=1 / cqm=0 / deadzone=21,11 / fast_pskip=1 / chroma_qp_offset=-2 / threads=48 / lookahead_threads=5 / sliced_threads=0 / nr=0 / decimate=1 / interlaced=0 / bluray_compat=0 / constrained_intra=0 / bframes=3 / b_pyramid=2 / b_adapt=1 / b_bias=0 / direct=3 / weightb=1 / open_gop=0 / weightp=2 / keyint=250 / keyint_min=23 / scenecut=40 / intra_refresh=0 / rc_lookahead=50 / rc=2pass / mbtree=1 / bitrate=1100 / ratetol=1.0 / qcomp=0.60 / qpmin=0 / qpmax=69 / qpstep=4 / cplxblur=20.0 / qblur=0.5 / vbv_maxrate=78125 / vbv_bufsize=62500 / nal_hrd=none / filler=0 / ip_ratio=1.40 / aq=1:1.00
Default : Yes
Forced : No

Audio

ID : 2
Format : AAC LC SBR
Format/Info : Advanced Audio Codec Low Complexity with Spectral Band Replication
Commercial name : HE-AAC
Format settings : Explicit
Codec ID : A_AAC-2
Duration : 1 h 9 min
Bit rate : 79.7 kb/s
Channel(s) : 2 channels
Channel layout : L R
Sampling rate : 48.0 kHz
Frame rate : 23.438 FPS (2048 SPF)
Compression mode : Lossy
Delay relative to video : 31 ms
Stream size : 39.5 MiB (6%)
Language : English
Default : Yes
Forced : No

Text #1

ID : 3
Format : PGS
Muxing mode : zlib
Codec ID : S_HDMV/PGS
Codec ID/Info : Picture based subtitle format used on BDs/HD-DVDs
Duration : 1 h 8 min
Bit rate : 28.2 kb/s
Count of elements : 1848
Stream size : 13.8 MiB (2%)
Language : English
Default : No
Forced : No

Text #2

ID : 4
Format : PGS
Muxing mode : zlib
Codec ID : S_HDMV/PGS
Codec ID/Info : Picture based subtitle format used on BDs/HD-DVDs
Duration : 1 h 8 min
Bit rate : 31.5 kb/s
Count of elements : 2112
Stream size : 15.5 MiB (3%)
Language : English
Default : No
Forced : No

Menu

00:00:00.000 : en:Bandits
00:02:50.796 : en:Infliltrators
00:04:56.630 : en:Parting Ways
00:07:57.769 : en:Spread the Wealth
00:10:33.633 : en:Lago's Plan
00:14:41.297 : en:Genie Returns
00:20:02.201 : en:Return of Jafar
00:24:28.967 : en:Sultan's Dinner
00:26:13.238 : en:Unwelcome Guest
00:31:05.572 : en:Matchmaker
00:34:21.559 : en:Friends Again?
00:37:58.443 : en:One Big Family
00:40:40.688 : en:Magic Carpet Ride
00:45:58.381 : en:Traitor
00:49:12.533 : en:False Arrest
00:52:34.860 : en:Great Escape
00:56:45.110 : en:Last Wish
00:58:38.014 : en:Rubber the Wrong Way
01:03:25.010 : en:He's Alive
01:05:30.677 : en:End Credits