General

Unique ID : 255003390788851776822022758172331433437 (0xBFD7DDDB12ED8200922A296A0CA55DDD)
Complete name : /home/30nama/movies/t/TimeScapes_2012_2160p_BluRay_UHD_MrKs_30NAMA.mkv
Format : Matroska
Format version : Version 4
File size : 9.62 GiB
Duration : 48 min 21 s
Overall bit rate : 28.5 Mb/s
Movie name : TimeScapes The Movie (2012) 4K-alE13
Encoded date : UTC 2015-12-07 10:37:56
Writing application : mkvmerge v8.1.0 ('Psychedelic Postcard') 64bit
Writing library : libebml v1.3.1 + libmatroska v1.4.2

Video

ID : 1
Format : AVC
Format/Info : Advanced Video Codec
Format profile : High@L5.1
Format settings : CABAC / 2 Ref Frames
Format settings, CABAC : Yes
Format settings, ReFrames : 2 frames
Codec ID : V_MPEG4/ISO/AVC
Duration : 48 min 21 s
Bit rate : 26.3 Mb/s
Width : 3 840 pixels
Height : 2 160 pixels
Display aspect ratio : 16:9
Frame rate mode : Constant
Frame rate : 23.976 (24000/1001) FPS
Color space : YUV
Chroma subsampling : 4:2:0
Bit depth : 8 bits
Scan type : Progressive
Bits/(Pixel*Frame) : 0.132
Stream size : 8.89 GiB (92%)
Title : TimeScapes The Movie (2012) 4K-alE13
Default : Yes
Forced : No

Audio #1

ID : 2
Format : DTS
Format/Info : Digital Theater Systems
Codec ID : A_DTS
Duration : 48 min 21 s
Bit rate mode : Constant
Bit rate : 1 509 kb/s
Channel(s) : 6 channels
Channel layout : C L R Ls Rs LFE
Sampling rate : 48.0 kHz
Frame rate : 93.750 FPS (512 SPF)
Bit depth : 24 bits
Compression mode : Lossy
Stream size : 522 MiB (5%)
Title : TimeScapes The Movie (2012) 4K-alE13_DTS Digital Surround 5.1
Language : English
Default : Yes
Forced : No

Audio #2

ID : 3
Format : AC-3
Format/Info : Audio Coding 3
Commercial name : Dolby Digital
Codec ID : A_AC3
Duration : 48 min 21 s
Bit rate mode : Constant
Bit rate : 640 kb/s
Channel(s) : 6 channels
Channel layout : L R C LFE Ls Rs
Sampling rate : 48.0 kHz
Frame rate : 31.250 FPS (1536 SPF)
Bit depth : 16 bits
Compression mode : Lossy
Stream size : 221 MiB (2%)
Title : TimeScapes The Movie (2012) 4K-alE13_Dolby Digital 5.1
Language : English
Service kind : Complete Main
Default : No
Forced : No

Menu

00:00:00.000 : en:Chapter 01
00:00:00.375 : en:Chapter 02
00:01:05.315 : en:Chapter 03
00:04:28.518 : en:Chapter 04
00:06:45.447 : en:Chapter 05
00:10:38.054 : en:Chapter 06
00:18:13.175 : en:Chapter 07
00:21:04.638 : en:Chapter 08
00:25:24.732 : en:Chapter 09
00:30:27.576 : en:Chapter 10
00:34:26.481 : en:Chapter 11
00:36:51.668 : en:Chapter 12
00:39:45.258 : en:Chapter 13
00:40:37.810 : en:Chapter 14
00:41:39.247 : en:Chapter 15
00:43:43.663 : en:Chapter 16