General

Unique ID : 200937935359589091466386126967037228083 (0x972B3D194BCD957CA325E799A05BF433)
Complete name : /home/30nama/movies/t/TimeScapes_2012_720p_BrRip_30nama_30NAMA.mkv
Format : Matroska
Format version : Version 4
File size : 410 MiB
Duration : 48 min 37 s
Overall bit rate : 1 179 kb/s
Movie name : Timescapes 2012 1080p Blu-ray Remux AVC DD 5.1 - KRaLiMaRKo
Encoded date : UTC 2020-09-03 18:06:14
Writing application : mkvmerge v9.6.0 ('Slave To Your Mind') 64bit
Writing library : libebml v1.3.4 + libmatroska v1.4.5

Video

ID : 1
Format : AVC
Format/Info : Advanced Video Codec
Format profile : High@L4.1
Format settings : CABAC / 5 Ref Frames
Format settings, CABAC : Yes
Format settings, ReFrames : 5 frames
Codec ID : V_MPEG4/ISO/AVC
Duration : 48 min 21 s
Bit rate : 1 100 kb/s
Width : 1 280 pixels
Height : 720 pixels
Display aspect ratio : 16:9
Frame rate mode : Constant
Frame rate : 23.976 (24000/1001) FPS
Color space : YUV
Chroma subsampling : 4:2:0
Bit depth : 8 bits
Scan type : Progressive
Bits/(Pixel*Frame) : 0.050
Stream size : 380 MiB (93%)
Writing library : x264 core 148 r2721 72d53ab
Encoding settings : cabac=1 / ref=5 / deblock=1:-1:-1 / analyse=0x3:0x113 / me=hex / subme=8 / psy=1 / psy_rd=1.00:0.00 / mixed_ref=1 / me_range=16 / chroma_me=1 / trellis=2 / 8x8dct=1 / cqm=0 / deadzone=21,11 / fast_pskip=1 / chroma_qp_offset=-2 / threads=48 / lookahead_threads=5 / sliced_threads=0 / nr=0 / decimate=1 / interlaced=0 / bluray_compat=0 / constrained_intra=0 / bframes=3 / b_pyramid=2 / b_adapt=1 / b_bias=0 / direct=3 / weightb=1 / open_gop=0 / weightp=2 / keyint=250 / keyint_min=23 / scenecut=40 / intra_refresh=0 / rc_lookahead=50 / rc=2pass / mbtree=1 / bitrate=1100 / ratetol=1.0 / qcomp=0.60 / qpmin=0 / qpmax=69 / qpstep=4 / cplxblur=20.0 / qblur=0.5 / vbv_maxrate=78125 / vbv_bufsize=62500 / nal_hrd=none / filler=0 / ip_ratio=1.40 / aq=1:1.00
Default : Yes
Forced : No

Audio

ID : 2
Format : AAC LC SBR
Format/Info : Advanced Audio Codec Low Complexity with Spectral Band Replication
Commercial name : HE-AAC
Format settings : Explicit
Codec ID : A_AAC-2
Duration : 48 min 37 s
Bit rate : 83.1 kb/s
Channel(s) : 2 channels
Channel layout : L R
Sampling rate : 48.0 kHz
Frame rate : 23.438 FPS (2048 SPF)
Compression mode : Lossy
Delay relative to video : 31 ms
Stream size : 28.9 MiB (7%)
Language : English
Default : Yes
Forced : No

Menu

00:00:00.000 : en:00:00:00.000
00:00:00.375 : en:00:00:00.375
00:01:05.315 : en:00:01:05.315
00:04:28.518 : en:00:04:28.518
00:06:45.447 : en:00:06:45.447
00:10:38.054 : en:00:10:38.054
00:18:13.175 : en:00:18:13.175
00:21:04.638 : en:00:21:04.638
00:25:24.732 : en:00:25:24.732
00:30:27.576 : en:00:30:27.576
00:34:26.481 : en:00:34:26.481
00:36:51.668 : en:00:36:51.668
00:39:45.258 : en:00:39:45.258
00:40:37.810 : en:00:40:37.810
00:41:39.247 : en:00:41:39.247
00:43:43.663 : en:00:43:43.663