General

Complete name : /home/30nama/movies/t/Tough_Assignment_1949_DVDRip_30NAMA.avi
Format : AVI
Format/Info : Audio Video Interleave
File size : 700 MiB
Duration : 1 h 4 min
Overall bit rate mode : Variable
Overall bit rate : 1 519 kb/s

Video

ID : 0
Format : MPEG-4 Visual
Format profile : Advanced Simple@L5
Format settings : BVOP1
Format settings, BVOP : 1
Format settings, QPel : No
Format settings, GMC : No warppoints
Format settings, Matrix : Default (H.263)
Codec ID : XVID
Codec ID/Hint : XviD
Duration : 1 h 4 min
Bit rate : 1 381 kb/s
Width : 560 pixels
Height : 416 pixels
Display aspect ratio : 4:3
Frame rate : 23.976 (24000/1001) FPS
Color space : YUV
Chroma subsampling : 4:2:0
Bit depth : 8 bits
Scan type : Progressive
Compression mode : Lossy
Bits/(Pixel*Frame) : 0.247
Stream size : 636 MiB (91%)
Writing library : XviD 1.2.0.dev47 (UTC 2006-11-01)

Audio #1

ID : 1
Format : MPEG Audio
Format version : Version 1
Format profile : Layer 3
Codec ID : 55
Codec ID/Hint : MP3
Duration : 1 h 4 min
Bit rate mode : Variable
Bit rate : 58.2 kb/s
Nominal bit rate : 64.0 kb/s
Channel(s) : 1 channel
Sampling rate : 48.0 kHz
Frame rate : 41.667 FPS (1152 SPF)
Compression mode : Lossy
Stream size : 26.8 MiB (4%)
Alignment : Aligned on interleaves
Interleave, duration : 24 ms (0.58 video frame)
Interleave, preload duration : 425 ms
Writing library : LAME3.97
Encoding settings : -m m -V 4 -q 2 -lowpass 16.5 --abr 64

Audio #2

ID : 2
Format : MPEG Audio
Format version : Version 1
Format profile : Layer 3
Codec ID : 55
Codec ID/Hint : MP3
Duration : 1 h 4 min
Bit rate mode : Variable
Bit rate : 59.3 kb/s
Nominal bit rate : 64.0 kb/s
Channel(s) : 1 channel
Sampling rate : 48.0 kHz
Frame rate : 41.667 FPS (1152 SPF)
Compression mode : Lossy
Stream size : 27.3 MiB (4%)
Alignment : Aligned on interleaves
Interleave, duration : 24 ms (0.58 video frame)
Interleave, preload duration : 310 ms
Writing library : LAME3.97
Encoding settings : -m m -V 4 -q 2 -lowpass 16.5 --abr 64