General

Unique ID : 310630660386872215449137339974175006517 (0xE9B149FF133477C1A512BD6C5CED9F35)
Complete name : /home/30nama/movies/t/Trolls_World_Tour_2020_10bit_720p_x265_BrRip_PSA_30NAMA.mkv
Format : Matroska
Format version : Version 4
File size : 977 MiB
Duration : 1 h 30 min
Overall bit rate : 1 505 kb/s
Movie name : PSArips.com | Trolls.World.Tour.2020.720p.10bit.BluRay.6CH.x265.HEVC-PSA
Encoded date : UTC 2020-06-26 13:52:07
Writing application : mkvmerge v47.0.0 ('Black Flag') 64-bit
Writing library : libebml v1.3.10 + libmatroska v1.5.2

Video

ID : 1
Format : HEVC
Format/Info : High Efficiency Video Coding
Format profile : Main 10@L3.1@Main
Codec ID : V_MPEGH/ISO/HEVC
Duration : 1 h 30 min
Bit rate : 1 284 kb/s
Width : 1 280 pixels
Height : 544 pixels
Display aspect ratio : 2.35:1
Frame rate mode : Constant
Frame rate : 23.976 (24000/1001) FPS
Color space : YUV
Chroma subsampling : 4:2:0
Bit depth : 10 bits
Bits/(Pixel*Frame) : 0.077
Stream size : 833 MiB (85%)
Default : Yes
Forced : No

Audio

ID : 2
Format : AAC LC SBR
Format/Info : Advanced Audio Codec Low Complexity with Spectral Band Replication
Commercial name : HE-AAC
Format settings : Explicit
Codec ID : A_AAC-2
Duration : 1 h 30 min
Bit rate : 220 kb/s
Channel(s) : 6 channels
Channel layout : C L R Ls Rs LFE
Sampling rate : 48.0 kHz
Frame rate : 23.438 FPS (2048 SPF)
Compression mode : Lossy
Delay relative to video : 31 ms
Stream size : 143 MiB (15%)
Language : English
Default : Yes
Forced : No

Text

ID : 3
Format : UTF-8
Codec ID : S_TEXT/UTF8
Codec ID/Info : UTF-8 Plain Text
Duration : 1 h 30 min
Bit rate : 97 b/s
Count of elements : 2108
Stream size : 64.6 KiB (0%)
Language : English
Default : Yes
Forced : No

Menu

00:00:00.000 : :Chapter 01
00:05:12.771 : :Chapter 02
00:08:44.899 : :Chapter 03
00:12:51.729 : :Chapter 04
00:18:25.813 : :Chapter 05
00:22:58.836 : :Chapter 06
00:27:36.405 : :Chapter 07
00:30:34.583 : :Chapter 08
00:34:23.353 : :Chapter 09
00:38:27.138 : :Chapter 10
00:41:13.096 : :Chapter 11
00:46:19.276 : :Chapter 12
00:50:12.426 : :Chapter 13
00:54:22.926 : :Chapter 14
00:59:22.726 : :Chapter 15
01:03:39.274 : :Chapter 16
01:06:25.523 : :Chapter 17
01:10:18.297 : :Chapter 18
01:15:41.829 : :Chapter 19
01:21:19.917 : :Chapter 20