General

Unique ID : 115502837789776007061468995513347250891 (0x56E50992CA7FE922D878C2DD87849ACB)
Complete name : /home/30nama/movies/x/X2_2003_10bit_HDR_1080p_x265_BluRay_UHD_DTS_NCmt_30NAMA.mkv
Format : Matroska
Format version : Version 4
File size : 20.4 GiB
Duration : 2 h 13 min
Overall bit rate : 21.8 Mb/s
Encoded date : UTC 2018-10-03 23:13:41
Writing application : mkvmerge v27.0.0 ('Metropolis') 64-bit
Writing library : libebml v1.3.6 + libmatroska v1.4.9

Video

ID : 1
Format : HEVC
Format/Info : High Efficiency Video Coding
Commercial name : HDR10
Format profile : Main 10@L5@High
Codec ID : V_MPEGH/ISO/HEVC
Duration : 2 h 13 min
Bit rate : 19.5 Mb/s
Width : 1 920 pixels
Height : 800 pixels
Display aspect ratio : 2.40:1
Frame rate mode : Constant
Frame rate : 23.976 (24000/1001) FPS
Color space : YUV
Chroma subsampling : 4:2:0 (Type 2)
Bit depth : 10 bits
Bits/(Pixel*Frame) : 0.530
Stream size : 18.2 GiB (90%)
Writing library : x265 2.8+74-fd517ae68f93:[Windows][GCC 8.2.0][64 bit] 10bit
Encoding settings : cpuid=1111039 / frame-threads=4 / numa-pools=16 / wpp / no-pmode / no-pme / no-psnr / no-ssim / log-level=2 / input-csp=1 / input-res=1920x800 / interlace=0 / total-frames=192467 / level-idc=50 / high-tier=1 / uhd-bd=0 / ref=5 / no-allow-non-conformance / repeat-headers / annexb / aud / hrd / info / hash=0 / no-temporal-layers / no-open-gop / min-keyint=23 / keyint=250 / gop-lookahead=0 / bframes=16 / b-adapt=2 / b-pyramid / bframe-bias=0 / rc-lookahead=60 / lookahead-slices=0 / scenecut=40 / radl=0 / no-intra-refresh / ctu=32 / min-cu-size=8 / no-rect / no-amp / max-tu-size=32 / tu-inter-depth=4 / tu-intra-depth=4 / limit-tu=4 / rdoq-level=2 / dynamic-rd=0.00 / no-ssim-rd / signhide / no-tskip / nr-intra=0 / nr-inter=0 / no-constrained-intra / strong-intra-smoothing / max-merge=4 / limit-refs=1 / limit-modes / me=3 / subme=5 / merange=32 / temporal-mvp / weightp / weightb / no-analyze-src-pics / deblock=-3:-3 / no-sao / no-sao-non-deblock / rd=3 / no-early-skip / no-rskip / no-fast-intra / no-tskip-fast / no-cu-lossless / b-intra / no-splitrd-skip / rdpenalty=0 / psy-rd=1.50 / psy-rdoq=1.00 / no-rd-refine / no-lossless / cbqpoffs=0 / crqpoffs=0 / rc=crf / crf=14.8 / qcomp=0.70 / qpstep=1 / stats-write=0 / stats-read=0 / vbv-maxrate=100000 / vbv-bufsize=100000 / vbv-init=0.9 / crf-max=0.0 / crf-min=0.0 / ipratio=1.20 / pbratio=1.10 / aq-mode=3 / aq-strength=0.85 / no-cutree / zone-count=0 / no-strict-cbr / qg-size=8 / no-rc-grain / qpmax=69 / qpmin=0 / no-const-vbv / sar=0 / overscan=0 / videoformat=5 / range=0 / colorprim=9 / transfer=16 / colormatrix=9 / chromaloc=1 / chromaloc-top=2 / chromaloc-bottom=2 / display-window=0 / master-display=G(13250,34500)B(7500,3000)R(34000,16000)WP(15635,16450)L(10000000,50) / max-cll=0,0 / min-luma=0 / max-luma=1023 / log2-max-poc-lsb=8 / vui-timing-info / vui-hrd-info / slices=1 / no-opt-qp-pps / no-opt-ref-list-length-pps / no-multi-pass-opt-rps / scenecut-bias=0.05 / no-opt-cu-delta-qp / no-aq-motion / hdr / hdr-opt / no-dhdr10-opt / no-idr-recovery-sei / analysis-reuse-level=5 / scale-factor=0 / refine-intra=0 / refine-inter=0 / refine-mv=0 / no-limit-sao / ctu-info=0 / no-lowpass-dct / refine-mv-type=0 / copy-pic=1 / max-ausize-factor=1.0 / no-dynamic-refine / no-single-sei
Language : English
Default : Yes
Forced : No
Color range : Limited
Color primaries : BT.2020
Transfer characteristics : PQ
Matrix coefficients : BT.2020 non-constant
Mastering display color primaries : Display P3
Mastering display luminance : min: 0.0050 cd/m2, max: 1000 cd/m2

Audio #1

ID : 2
Format : DTS
Format/Info : Digital Theater Systems
Codec ID : A_DTS
Duration : 2 h 13 min
Bit rate mode : Constant
Bit rate : 1 509 kb/s
Channel(s) : 6 channels
Channel layout : C L R Ls Rs LFE
Sampling rate : 48.0 kHz
Frame rate : 93.750 FPS (512 SPF)
Bit depth : 24 bits
Compression mode : Lossy
Stream size : 1.41 GiB (7%)
Language : English
Default : Yes
Forced : No

Audio #2

ID : 3
Format : AC-3
Format/Info : Audio Coding 3
Commercial name : Dolby Digital
Codec ID : A_AC3
Duration : 2 h 13 min
Bit rate mode : Constant
Bit rate : 224 kb/s
Channel(s) : 2 channels
Channel layout : L R
Sampling rate : 48.0 kHz
Frame rate : 31.250 FPS (1536 SPF)
Bit depth : 16 bits
Compression mode : Lossy
Stream size : 214 MiB (1%)
Title : Commentary with director Bryan Singer and cinematographer Newton Thomas Sigel
Language : English
Service kind : Complete Main
Default : No
Forced : No

Audio #3

ID : 4
Format : AC-3
Format/Info : Audio Coding 3
Commercial name : Dolby Digital
Codec ID : A_AC3
Duration : 2 h 13 min
Bit rate mode : Constant
Bit rate : 224 kb/s
Channel(s) : 2 channels
Channel layout : L R
Sampling rate : 48.0 kHz
Frame rate : 31.250 FPS (1536 SPF)
Bit depth : 16 bits
Compression mode : Lossy
Stream size : 214 MiB (1%)
Title : Commentary with producers Ralph Winter/Lauren Shuler Donner and writers Michael Dougherty/Dan Harris/David Hayter
Language : English
Service kind : Complete Main
Default : No
Forced : No

Text #1

ID : 5
Format : UTF-8
Codec ID : S_TEXT/UTF8
Codec ID/Info : UTF-8 Plain Text
Duration : 2 h 4 min
Bit rate : 40 b/s
Count of elements : 1060
Stream size : 37.0 KiB (0%)
Language : English
Default : No
Forced : No

Text #2

ID : 6
Format : UTF-8
Codec ID : S_TEXT/UTF8
Codec ID/Info : UTF-8 Plain Text
Duration : 2 h 4 min
Bit rate : 48 b/s
Count of elements : 1289
Stream size : 44.0 KiB (0%)
Title : SDH
Language : English
Default : No
Forced : No

Text #3

ID : 7
Format : PGS
Muxing mode : zlib
Codec ID : S_HDMV/PGS
Codec ID/Info : Picture based subtitle format used on BDs/HD-DVDs
Duration : 2 h 4 min
Bit rate : 33.9 kb/s
Count of elements : 2233
Stream size : 30.1 MiB (0%)
Title : Cantonese
Language : Chinese
Default : No
Forced : No

Text #4

ID : 8
Format : PGS
Muxing mode : zlib
Codec ID : S_HDMV/PGS
Codec ID/Info : Picture based subtitle format used on BDs/HD-DVDs
Duration : 2 h 4 min
Bit rate : 36.2 kb/s
Count of elements : 2249
Stream size : 32.2 MiB (0%)
Title : Mandarin Traditional
Language : Chinese
Default : No
Forced : No

Text #5

ID : 9
Format : PGS
Muxing mode : zlib
Codec ID : S_HDMV/PGS
Codec ID/Info : Picture based subtitle format used on BDs/HD-DVDs
Duration : 2 h 4 min
Bit rate : 17.7 kb/s
Count of elements : 1734
Stream size : 15.8 MiB (0%)
Language : Czech
Default : No
Forced : No

Text #6

ID : 10
Format : PGS
Muxing mode : zlib
Codec ID : S_HDMV/PGS
Codec ID/Info : Picture based subtitle format used on BDs/HD-DVDs
Duration : 2 h 4 min
Bit rate : 18.3 kb/s
Count of elements : 1734
Stream size : 16.3 MiB (0%)
Language : Danish
Default : No
Forced : No

Text #7

ID : 11
Format : PGS
Muxing mode : zlib
Codec ID : S_HDMV/PGS
Codec ID/Info : Picture based subtitle format used on BDs/HD-DVDs
Duration : 2 h 4 min
Bit rate : 17.0 kb/s
Count of elements : 1522
Stream size : 15.1 MiB (0%)
Language : Dutch
Default : No
Forced : No

Text #8

ID : 12
Format : PGS
Muxing mode : zlib
Codec ID : S_HDMV/PGS
Codec ID/Info : Picture based subtitle format used on BDs/HD-DVDs
Duration : 2 h 4 min
Bit rate : 19.5 kb/s
Count of elements : 1732
Stream size : 17.3 MiB (0%)
Language : Finnish
Default : No
Forced : No

Text #9

ID : 13
Format : PGS
Muxing mode : zlib
Codec ID : S_HDMV/PGS
Codec ID/Info : Picture based subtitle format used on BDs/HD-DVDs
Duration : 2 h 13 min
Bit rate : 18.0 kb/s
Count of elements : 1736
Stream size : 17.1 MiB (0%)
Language : French
Default : No
Forced : No

Text #10

ID : 14
Format : PGS
Muxing mode : zlib
Codec ID : S_HDMV/PGS
Codec ID/Info : Picture based subtitle format used on BDs/HD-DVDs
Duration : 2 h 4 min
Bit rate : 20.0 kb/s
Count of elements : 1734
Stream size : 17.8 MiB (0%)
Language : German
Default : No
Forced : No

Text #11

ID : 15
Format : PGS
Muxing mode : zlib
Codec ID : S_HDMV/PGS
Codec ID/Info : Picture based subtitle format used on BDs/HD-DVDs
Duration : 2 h 4 min
Bit rate : 19.7 kb/s
Count of elements : 1734
Stream size : 17.5 MiB (0%)
Language : Italian
Default : No
Forced : No

Text #12

ID : 16
Format : PGS
Muxing mode : zlib
Codec ID : S_HDMV/PGS
Codec ID/Info : Picture based subtitle format used on BDs/HD-DVDs
Duration : 2 h 4 min
Bit rate : 15.6 kb/s
Count of elements : 2244
Stream size : 13.8 MiB (0%)
Language : Japanese
Default : No
Forced : No

Text #13

ID : 17
Format : PGS
Muxing mode : zlib
Codec ID : S_HDMV/PGS
Codec ID/Info : Picture based subtitle format used on BDs/HD-DVDs
Duration : 2 h 4 min
Bit rate : 16.3 kb/s
Count of elements : 1668
Stream size : 14.5 MiB (0%)
Language : Norwegian
Default : No
Forced : No

Text #14

ID : 18
Format : PGS
Muxing mode : zlib
Codec ID : S_HDMV/PGS
Codec ID/Info : Picture based subtitle format used on BDs/HD-DVDs
Duration : 2 h 4 min
Bit rate : 18.1 kb/s
Count of elements : 1734
Stream size : 16.1 MiB (0%)
Language : Polish
Default : No
Forced : No

Text #15

ID : 19
Format : PGS
Muxing mode : zlib
Codec ID : S_HDMV/PGS
Codec ID/Info : Picture based subtitle format used on BDs/HD-DVDs
Duration : 2 h 4 min
Bit rate : 19.1 kb/s
Count of elements : 1734
Stream size : 17.0 MiB (0%)
Title : Castilian
Language : Spanish
Default : No
Forced : No

Text #16

ID : 20
Format : PGS
Muxing mode : zlib
Codec ID : S_HDMV/PGS
Codec ID/Info : Picture based subtitle format used on BDs/HD-DVDs
Duration : 2 h 4 min
Bit rate : 33.1 kb/s
Count of elements : 2184
Stream size : 29.5 MiB (0%)
Title : Latin American
Language : Spanish
Default : No
Forced : No

Text #17

ID : 21
Format : PGS
Muxing mode : zlib
Codec ID : S_HDMV/PGS
Codec ID/Info : Picture based subtitle format used on BDs/HD-DVDs
Duration : 2 h 13 min
Bit rate : 16.1 kb/s
Count of elements : 1736
Stream size : 15.3 MiB (0%)
Language : Swedish
Default : No
Forced : No

Text #18

ID : 22
Format : UTF-8
Codec ID : S_TEXT/UTF8
Codec ID/Info : UTF-8 Plain Text
Duration : 2 h 12 min
Bit rate : 93 b/s
Count of elements : 1611
Stream size : 90.9 KiB (0%)
Title : Commentary 1 - SDH
Language : English
Default : No
Forced : No

Text #19

ID : 23
Format : UTF-8
Codec ID : S_TEXT/UTF8
Codec ID/Info : UTF-8 Plain Text
Duration : 2 h 12 min
Bit rate : 96 b/s
Count of elements : 1686
Stream size : 93.5 KiB (0%)
Title : Commentary 2 - SDH
Language : English
Default : No
Forced : No

Text #20

ID : 24
Format : PGS
Muxing mode : zlib
Codec ID : S_HDMV/PGS
Codec ID/Info : Picture based subtitle format used on BDs/HD-DVDs
Duration : 2 h 12 min
Bit rate : 44.3 kb/s
Count of elements : 3312
Stream size : 42.0 MiB (0%)
Title : Commentary 1
Language : Danish
Default : No
Forced : No

Text #21

ID : 25
Format : PGS
Muxing mode : zlib
Codec ID : S_HDMV/PGS
Codec ID/Info : Picture based subtitle format used on BDs/HD-DVDs
Duration : 2 h 12 min
Bit rate : 42.0 kb/s
Count of elements : 2874
Stream size : 39.9 MiB (0%)
Title : Commentary 1
Language : Dutch
Default : No
Forced : No

Text #22

ID : 26
Format : PGS
Muxing mode : zlib
Codec ID : S_HDMV/PGS
Codec ID/Info : Picture based subtitle format used on BDs/HD-DVDs
Duration : 2 h 12 min
Bit rate : 43.9 kb/s
Count of elements : 3306
Stream size : 41.7 MiB (0%)
Title : Commentary 1
Language : Finnish
Default : No
Forced : No

Text #23

ID : 27
Format : PGS
Muxing mode : zlib
Codec ID : S_HDMV/PGS
Codec ID/Info : Picture based subtitle format used on BDs/HD-DVDs
Duration : 2 h 12 min
Bit rate : 43.3 kb/s
Count of elements : 2984
Stream size : 41.1 MiB (0%)
Title : Commentary 1
Language : French
Default : No
Forced : No

Text #24

ID : 28
Format : PGS
Muxing mode : zlib
Codec ID : S_HDMV/PGS
Codec ID/Info : Picture based subtitle format used on BDs/HD-DVDs
Duration : 2 h 12 min
Bit rate : 42.8 kb/s
Count of elements : 2830
Stream size : 40.6 MiB (0%)
Title : Commentary 1
Language : German
Default : No
Forced : No

Text #25

ID : 29
Format : PGS
Muxing mode : zlib
Codec ID : S_HDMV/PGS
Codec ID/Info : Picture based subtitle format used on BDs/HD-DVDs
Duration : 2 h 12 min
Bit rate : 46.8 kb/s
Count of elements : 2846
Stream size : 44.4 MiB (0%)
Title : Commentary 1
Language : Italian
Default : No
Forced : No

Text #26

ID : 30
Format : PGS
Muxing mode : zlib
Codec ID : S_HDMV/PGS
Codec ID/Info : Picture based subtitle format used on BDs/HD-DVDs
Duration : 2 h 12 min
Bit rate : 36.1 kb/s
Count of elements : 2860
Stream size : 34.2 MiB (0%)
Title : Commentary 1
Language : Japanese
Default : No
Forced : No

Text #27

ID : 31
Format : PGS
Muxing mode : zlib
Codec ID : S_HDMV/PGS
Codec ID/Info : Picture based subtitle format used on BDs/HD-DVDs
Duration : 2 h 12 min
Bit rate : 44.5 kb/s
Count of elements : 3226
Stream size : 42.2 MiB (0%)
Title : Commentary 1
Language : Norwegian
Default : No
Forced : No

Text #28

ID : 32
Format : PGS
Muxing mode : zlib
Codec ID : S_HDMV/PGS
Codec ID/Info : Picture based subtitle format used on BDs/HD-DVDs
Duration : 2 h 12 min
Bit rate : 43.9 kb/s
Count of elements : 2836
Stream size : 41.7 MiB (0%)
Title : Commentary 1
Language : Spanish
Default : No
Forced : No

Text #29

ID : 33
Format : PGS
Muxing mode : zlib
Codec ID : S_HDMV/PGS
Codec ID/Info : Picture based subtitle format used on BDs/HD-DVDs
Duration : 2 h 13 min
Bit rate : 44.6 kb/s
Count of elements : 3192
Stream size : 42.6 MiB (0%)
Title : Commentary 1
Language : Swedish
Default : No
Forced : No

Menu

00:00:00.000 : en:Main Titles
00:01:50.527 : en:Security Breach
00:05:21.947 : en:Alkali Lake
00:07:12.265 : en:The Field Trip
00:12:27.121 : en:Stryker's War
00:15:34.225 : en:Logan's Return
00:17:57.326 : en:One Final Talk
00:19:25.706 : en:The Mutant Connection
00:22:47.616 : en:Mutant Intruder
00:26:09.693 : en:Nightcrawler
00:29:15.963 : en:Sleepless
00:31:10.285 : en:Magneto's Visitor
00:33:41.686 : en:The War Has Begun
00:35:09.524 : en:The Invaders
00:39:50.179 : en:Out of the Past
00:45:35.733 : en:Grace
00:47:18.335 : en:Stryker's Prisoner
00:50:24.104 : en:The Drake Home
00:53:17.986 : en:Too Much Iron
00:55:40.420 : en:This Mutant Problem
00:57:14.931 : en:Faith & Anger
00:59:21.808 : en:Dangerous Mutants
01:04:55.892 : en:Air Attack
01:09:23.701 : en:Stryker's Plan
01:14:48.734 : en:What Do You Want?
01:18:18.485 : en:The Mutant Inside
01:24:52.546 : en:Time to Find Our Friends
01:27:16.440 : en:Lover's Quarrel
01:30:32.385 : en:Point of Origin
01:32:33.923 : en:Two of A Kind
01:36:44.090 : en:Change of Plans
01:41:16.070 : en:An Animal
01:43:31.163 : en:To Stop Cerebro
01:46:38.058 : en:The Big Chill
01:48:38.637 : en:Escape
01:53:41.940 : en:The Only Way
01:58:18.883 : en:The President's Opportunity
02:02:14.661 : en:Left Behind
02:04:38.471 : en:Evolution Leaps Forward
02:05:11.170 : en:End Titles