General

Unique ID : 294599543499855760670527975955803580597 (0xDDA1CEE9020502B5928F85F35156A8B5)
Complete name : /home/30nama/movies/x/X2_2003_2160p_BluRay_UHD_DTS_EPSiLON_30NAMA.mkv
Format : Matroska
Format version : Version 4
File size : 50.6 GiB
Duration : 2 h 13 min
Overall bit rate mode : Variable
Overall bit rate : 54.1 Mb/s
Movie name : X-Men 2 (2003)
Encoded date : UTC 2018-09-23 22:40:29
Writing application : mkvmerge v26.0.0 ('In The Game') 64-bit
Writing library : libebml v1.3.6 + libmatroska v1.4.9

Video

ID : 1
Format : HEVC
Format/Info : High Efficiency Video Coding
Commercial name : HDR10
Format profile : Main 10@L5.1@High
Codec ID : V_MPEGH/ISO/HEVC
Duration : 2 h 13 min
Bit rate : 48.7 Mb/s
Width : 3 840 pixels
Height : 2 160 pixels
Display aspect ratio : 16:9
Frame rate mode : Constant
Frame rate : 23.976 (24000/1001) FPS
Color space : YUV
Chroma subsampling : 4:2:0 (Type 2)
Bit depth : 10 bits
Bits/(Pixel*Frame) : 0.245
Stream size : 45.5 GiB (90%)
Title : MPEG-H HEVC Video / 48722 kbps / 2160p / 23.976 fps / 16:9 / Main 10 Profile 5.1 High / 4:2:0 / 10 bits / HDR / BT.2020
Writing library : ATEME Titan File 3.8.16 (4.8.16.0)
Language : English
Default : Yes
Forced : No
Color range : Limited
Color primaries : BT.2020
Transfer characteristics : PQ
Matrix coefficients : BT.2020 non-constant
Mastering display color primaries : Display P3
Mastering display luminance : min: 0.0050 cd/m2, max: 1000 cd/m2

Audio #1

ID : 2
Format : DTS XLL
Format/Info : Digital Theater Systems
Commercial name : DTS-HD Master Audio
Codec ID : A_DTS
Duration : 2 h 13 min
Bit rate mode : Variable
Bit rate : 4 075 kb/s
Channel(s) : 6 channels
Channel layout : C L R Ls Rs LFE
Sampling rate : 48.0 kHz
Frame rate : 93.750 FPS (512 SPF)
Bit depth : 24 bits
Compression mode : Lossless
Stream size : 3.81 GiB (8%)
Title : DTS-HD Master Audio / 5.1 / 48 kHz / 4075 kbps / 24-bit
Language : English
Default : Yes
Forced : No

Audio #2

ID : 3
Format : AC-3
Format/Info : Audio Coding 3
Commercial name : Dolby Digital
Codec ID : A_AC3
Duration : 2 h 13 min
Bit rate mode : Constant
Bit rate : 224 kb/s
Channel(s) : 2 channels
Channel layout : L R
Sampling rate : 48.0 kHz
Frame rate : 31.250 FPS (1536 SPF)
Bit depth : 16 bits
Compression mode : Lossy
Stream size : 214 MiB (0%)
Title : Commentary by director/co-writer/executive producer and director of photography Newton Thomas Sigel
Language : English
Service kind : Complete Main
Default : No
Forced : No

Audio #3

ID : 4
Format : AC-3
Format/Info : Audio Coding 3
Commercial name : Dolby Digital
Codec ID : A_AC3
Duration : 2 h 13 min
Bit rate mode : Constant
Bit rate : 224 kb/s
Channel(s) : 2 channels
Channel layout : L R
Sampling rate : 48.0 kHz
Frame rate : 31.250 FPS (1536 SPF)
Bit depth : 16 bits
Compression mode : Lossy
Stream size : 214 MiB (0%)
Title : Commentary by producers Ralph Winter and Lauren Shuler Donner, and co-writers David Hayter, Dan Harris and Michael Dougherty
Language : English
Service kind : Complete Main
Default : No
Forced : No

Text #1

ID : 5
Format : PGS
Codec ID : S_HDMV/PGS
Codec ID/Info : Picture based subtitle format used on BDs/HD-DVDs
Duration : 2 h 4 min
Bit rate : 43.0 kb/s
Count of elements : 2578
Stream size : 38.3 MiB (0%)
Title : SDH
Language : English
Default : No
Forced : No

Text #2

ID : 6
Format : PGS
Codec ID : S_HDMV/PGS
Codec ID/Info : Picture based subtitle format used on BDs/HD-DVDs
Duration : 2 h 4 min
Bit rate : 33.9 kb/s
Count of elements : 2233
Stream size : 30.1 MiB (0%)
Title : Cantonese
Language : Chinese
Default : No
Forced : No

Text #3

ID : 7
Format : PGS
Codec ID : S_HDMV/PGS
Codec ID/Info : Picture based subtitle format used on BDs/HD-DVDs
Duration : 2 h 4 min
Bit rate : 36.2 kb/s
Count of elements : 2249
Stream size : 32.2 MiB (0%)
Title : Traditional
Language : Chinese
Default : No
Forced : No

Text #4

ID : 8
Format : PGS
Codec ID : S_HDMV/PGS
Codec ID/Info : Picture based subtitle format used on BDs/HD-DVDs
Duration : 2 h 4 min
Bit rate : 17.7 kb/s
Count of elements : 1734
Stream size : 15.8 MiB (0%)
Language : Czech
Default : No
Forced : No

Text #5

ID : 9
Format : PGS
Codec ID : S_HDMV/PGS
Codec ID/Info : Picture based subtitle format used on BDs/HD-DVDs
Duration : 2 h 4 min
Bit rate : 18.3 kb/s
Count of elements : 1734
Stream size : 16.3 MiB (0%)
Language : Danish
Default : No
Forced : No

Text #6

ID : 10
Format : PGS
Codec ID : S_HDMV/PGS
Codec ID/Info : Picture based subtitle format used on BDs/HD-DVDs
Duration : 2 h 4 min
Bit rate : 17.0 kb/s
Count of elements : 1522
Stream size : 15.1 MiB (0%)
Language : Dutch
Default : No
Forced : No

Text #7

ID : 11
Format : PGS
Codec ID : S_HDMV/PGS
Codec ID/Info : Picture based subtitle format used on BDs/HD-DVDs
Duration : 2 h 4 min
Bit rate : 19.5 kb/s
Count of elements : 1732
Stream size : 17.3 MiB (0%)
Language : Finnish
Default : No
Forced : No

Text #8

ID : 12
Format : PGS
Codec ID : S_HDMV/PGS
Codec ID/Info : Picture based subtitle format used on BDs/HD-DVDs
Duration : 2 h 13 min
Bit rate : 18.0 kb/s
Count of elements : 1736
Stream size : 17.1 MiB (0%)
Language : French
Default : No
Forced : No

Text #9

ID : 13
Format : PGS
Codec ID : S_HDMV/PGS
Codec ID/Info : Picture based subtitle format used on BDs/HD-DVDs
Duration : 2 h 4 min
Bit rate : 20.0 kb/s
Count of elements : 1734
Stream size : 17.8 MiB (0%)
Language : German
Default : No
Forced : No

Text #10

ID : 14
Format : PGS
Codec ID : S_HDMV/PGS
Codec ID/Info : Picture based subtitle format used on BDs/HD-DVDs
Duration : 2 h 4 min
Bit rate : 19.7 kb/s
Count of elements : 1734
Stream size : 17.5 MiB (0%)
Language : Italian
Default : No
Forced : No

Text #11

ID : 15
Format : PGS
Codec ID : S_HDMV/PGS
Codec ID/Info : Picture based subtitle format used on BDs/HD-DVDs
Duration : 2 h 4 min
Bit rate : 15.6 kb/s
Count of elements : 2244
Stream size : 13.8 MiB (0%)
Language : Japanese
Default : No
Forced : No

Text #12

ID : 16
Format : PGS
Codec ID : S_HDMV/PGS
Codec ID/Info : Picture based subtitle format used on BDs/HD-DVDs
Duration : 2 h 4 min
Bit rate : 16.3 kb/s
Count of elements : 1668
Stream size : 14.5 MiB (0%)
Language : Norwegian
Default : No
Forced : No

Text #13

ID : 17
Format : PGS
Codec ID : S_HDMV/PGS
Codec ID/Info : Picture based subtitle format used on BDs/HD-DVDs
Duration : 2 h 4 min
Bit rate : 18.1 kb/s
Count of elements : 1734
Stream size : 16.1 MiB (0%)
Language : Polish
Default : No
Forced : No

Text #14

ID : 18
Format : PGS
Codec ID : S_HDMV/PGS
Codec ID/Info : Picture based subtitle format used on BDs/HD-DVDs
Duration : 2 h 4 min
Bit rate : 33.1 kb/s
Count of elements : 2184
Stream size : 29.5 MiB (0%)
Title : Latin American
Language : Spanish
Default : No
Forced : No

Text #15

ID : 19
Format : PGS
Codec ID : S_HDMV/PGS
Codec ID/Info : Picture based subtitle format used on BDs/HD-DVDs
Duration : 2 h 4 min
Bit rate : 19.1 kb/s
Count of elements : 1734
Stream size : 17.0 MiB (0%)
Title : Castilian
Language : Spanish
Default : No
Forced : No

Text #16

ID : 20
Format : PGS
Codec ID : S_HDMV/PGS
Codec ID/Info : Picture based subtitle format used on BDs/HD-DVDs
Duration : 2 h 13 min
Bit rate : 16.1 kb/s
Count of elements : 1736
Stream size : 15.3 MiB (0%)
Language : Swedish
Default : No
Forced : No

Text #17

ID : 21
Format : PGS
Codec ID : S_HDMV/PGS
Codec ID/Info : Picture based subtitle format used on BDs/HD-DVDs
Duration : 2 h 12 min
Bit rate : 50.4 kb/s
Count of elements : 3222
Stream size : 47.8 MiB (0%)
Title : Commentary by director/co-writer/executive producer and director of photography Newton Thomas Sigel
Language : English
Default : No
Forced : No

Text #18

ID : 22
Format : PGS
Codec ID : S_HDMV/PGS
Codec ID/Info : Picture based subtitle format used on BDs/HD-DVDs
Duration : 2 h 12 min
Bit rate : 53.7 kb/s
Count of elements : 3372
Stream size : 50.8 MiB (0%)
Title : Commentary by producers Ralph Winter and Lauren Shuler Donner, and co-writers David Hayter, Dan Harris and Michael Dougherty
Language : English
Default : No
Forced : No

Text #19

ID : 23
Format : PGS
Codec ID : S_HDMV/PGS
Codec ID/Info : Picture based subtitle format used on BDs/HD-DVDs
Duration : 2 h 12 min
Bit rate : 44.3 kb/s
Count of elements : 3312
Stream size : 42.0 MiB (0%)
Title : Commentary by director/co-writer/executive producer and director of photography Newton Thomas Sigel
Language : Danish
Default : No
Forced : No

Text #20

ID : 24
Format : PGS
Codec ID : S_HDMV/PGS
Codec ID/Info : Picture based subtitle format used on BDs/HD-DVDs
Duration : 2 h 12 min
Bit rate : 42.0 kb/s
Count of elements : 2874
Stream size : 39.9 MiB (0%)
Title : Commentary by director/co-writer/executive producer and director of photography Newton Thomas Sigel
Language : Dutch
Default : No
Forced : No

Text #21

ID : 25
Format : PGS
Codec ID : S_HDMV/PGS
Codec ID/Info : Picture based subtitle format used on BDs/HD-DVDs
Duration : 2 h 12 min
Bit rate : 43.9 kb/s
Count of elements : 3306
Stream size : 41.7 MiB (0%)
Title : Commentary by director/co-writer/executive producer and director of photography Newton Thomas Sigel
Language : Finnish
Default : No
Forced : No

Text #22

ID : 26
Format : PGS
Codec ID : S_HDMV/PGS
Codec ID/Info : Picture based subtitle format used on BDs/HD-DVDs
Duration : 2 h 12 min
Bit rate : 43.3 kb/s
Count of elements : 2984
Stream size : 41.1 MiB (0%)
Title : Commentary by director/co-writer/executive producer and director of photography Newton Thomas Sigel
Language : French
Default : No
Forced : No

Text #23

ID : 27
Format : PGS
Codec ID : S_HDMV/PGS
Codec ID/Info : Picture based subtitle format used on BDs/HD-DVDs
Duration : 2 h 12 min
Bit rate : 42.8 kb/s
Count of elements : 2830
Stream size : 40.6 MiB (0%)
Title : Commentary by director/co-writer/executive producer and director of photography Newton Thomas Sigel
Language : German
Default : No
Forced : No

Text #24

ID : 28
Format : PGS
Codec ID : S_HDMV/PGS
Codec ID/Info : Picture based subtitle format used on BDs/HD-DVDs
Duration : 2 h 12 min
Bit rate : 46.8 kb/s
Count of elements : 2846
Stream size : 44.4 MiB (0%)
Title : Commentary by director/co-writer/executive producer and director of photography Newton Thomas Sigel
Language : Italian
Default : No
Forced : No

Text #25

ID : 29
Format : PGS
Codec ID : S_HDMV/PGS
Codec ID/Info : Picture based subtitle format used on BDs/HD-DVDs
Duration : 2 h 12 min
Bit rate : 36.1 kb/s
Count of elements : 2860
Stream size : 34.2 MiB (0%)
Title : Commentary by director/co-writer/executive producer and director of photography Newton Thomas Sigel
Language : Japanese
Default : No
Forced : No

Text #26

ID : 30
Format : PGS
Codec ID : S_HDMV/PGS
Codec ID/Info : Picture based subtitle format used on BDs/HD-DVDs
Duration : 2 h 12 min
Bit rate : 44.5 kb/s
Count of elements : 3226
Stream size : 42.2 MiB (0%)
Title : Commentary by director/co-writer/executive producer and director of photography Newton Thomas Sigel
Language : Norwegian
Default : No
Forced : No

Text #27

ID : 31
Format : PGS
Codec ID : S_HDMV/PGS
Codec ID/Info : Picture based subtitle format used on BDs/HD-DVDs
Duration : 2 h 12 min
Bit rate : 43.9 kb/s
Count of elements : 2836
Stream size : 41.7 MiB (0%)
Title : Commentary by director/co-writer/executive producer and director of photography Newton Thomas Sigel
Language : Spanish
Default : No
Forced : No

Text #28

ID : 32
Format : PGS
Codec ID : S_HDMV/PGS
Codec ID/Info : Picture based subtitle format used on BDs/HD-DVDs
Duration : 2 h 13 min
Bit rate : 44.6 kb/s
Count of elements : 3192
Stream size : 42.6 MiB (0%)
Title : Commentary by director/co-writer/executive producer and director of photography Newton Thomas Sigel
Language : Swedish
Default : No
Forced : No

Menu

00:00:00.000 : en:Main Titles
00:01:50.527 : en:Security Breach
00:05:21.946 : en:Alkali Lake
00:07:12.265 : en:The Field Trip
00:12:27.121 : en:Stryker's War
00:15:34.224 : en:Logan's Return
00:17:57.326 : en:One Final Talk
00:19:25.706 : en:The Mutant Connection
00:22:47.616 : en:Mutant Intruder
00:26:09.693 : en:Nightcrawler
00:29:15.962 : en:Sleepless
00:31:10.285 : en:Magneto's Visitor
00:33:41.686 : en:The War Has Begun
00:35:09.524 : en:The Invaders
00:39:50.179 : en:Out of the Past
00:45:35.733 : en:Grace
00:47:18.335 : en:Stryker's Prisoner
00:50:24.104 : en:The Drake Home
00:53:17.986 : en:Too Much Iron
00:55:40.754 : en:This Mutant Problem
00:57:14.931 : en:Faith & Anger
00:59:21.808 : en:Dangerous Mutants
01:04:55.892 : en:Air Attack
01:09:23.701 : en:Stryker's Plan
01:14:48.734 : en:What Do You Want?
01:18:18.485 : en:The Mutant Inside
01:24:52.545 : en:Time to Find Our Friends
01:27:16.439 : en:Lover's Quarrel
01:30:32.385 : en:Point of Origin
01:32:33.923 : en:Two of A Kind
01:36:44.089 : en:Change of Plans
01:41:16.070 : en:An Animal
01:43:31.163 : en:To Stop Cerebro
01:46:38.058 : en:The Big Chill
01:48:38.637 : en:Escape
01:53:41.940 : en:The Only Way
01:58:18.883 : en:The President's Opportunity
02:02:14.660 : en:Left Behind
02:04:38.471 : en:Evolution Leaps Forward
02:05:11.170 : en:End Titles