General

Unique ID : 276095217777027483878861412803722003199 (0xCFB60136C3B32B8435349A4F0EAAC2FF)
Complete name : /home/30nama/movies/y/Yesterday_2019_1080p_BluRay_Full_HD_DD5.1_DON_30NAMA.mkv
Format : Matroska
Format version : Version 4
File size : 11.3 GiB
Duration : 1 h 56 min
Overall bit rate : 13.9 Mb/s
Movie name : Yesterday.2019.1080p.BluRay.DD5.1.x264-DON
Encoded date : UTC 2019-10-10 14:43:16
Writing application : mkvmerge v37.0.0 ('Leave It') 64-bit
Writing library : libebml v1.3.9 + libmatroska v1.5.2

Video

ID : 1
Format : AVC
Format/Info : Advanced Video Codec
Format profile : High@L4.1
Format settings : CABAC / 5 Ref Frames
Format settings, CABAC : Yes
Format settings, ReFrames : 5 frames
Codec ID : V_MPEG4/ISO/AVC
Duration : 1 h 56 min
Bit rate : 12.7 Mb/s
Width : 1 920 pixels
Height : 804 pixels
Display aspect ratio : 2.40:1
Frame rate mode : Constant
Frame rate : 23.976 (24000/1001) FPS
Color space : YUV
Chroma subsampling : 4:2:0
Bit depth : 8 bits
Scan type : Progressive
Bits/(Pixel*Frame) : 0.343
Stream size : 10.3 GiB (91%)
Writing library : x264 core 157 r2970+47 cae74a0 t_mod_New [0-bit@all X86_64]
Encoding settings : cabac=1 / ref=5 / deblock=1:-3:-3 / analyse=0x3:0x133 / me=umh / subme=10 / psy=1 / fade_compensate=0.00 / psy_rd=1.00:0.00 / mixed_ref=1 / me_range=32 / chroma_me=1 / trellis=2 / 8x8dct=1 / cqm=0 / deadzone=21,11 / fast_pskip=0 / chroma_qp_offset=-2 / threads=24 / lookahead_threads=4 / sliced_threads=0 / nr=0 / decimate=0 / interlaced=0 / bluray_compat=0 / constrained_intra=0 / fgo=0 / bframes=8 / b_pyramid=2 / b_adapt=2 / b_bias=0 / direct=3 / weightb=1 / open_gop=0 / weightp=2 / keyint=250 / keyint_min=23 / scenecut=40 / intra_refresh=0 / rc=crf / mbtree=0 / crf=15.4000 / qcomp=0.60 / qpmin=0:0:0 / qpmax=69:69:69 / qpstep=4 / ip_ratio=1.40 / pb_ratio=1.30 / aq=3:0.85 / aq-sensitivity=10.00 / aq-factor=1.00:1.00:1.00 / aq2=0 / aq3=0
Language : English
Default : Yes
Forced : No

Audio #1

ID : 2
Format : E-AC-3
Format/Info : Enhanced AC-3
Commercial name : Dolby Digital Plus
Codec ID : A_EAC3
Duration : 1 h 56 min
Bit rate mode : Constant
Bit rate : 1 024 kb/s
Channel(s) : 6 channels
Channel layout : L R C LFE Ls Rs
Sampling rate : 48.0 kHz
Frame rate : 31.250 FPS (1536 SPF)
Compression mode : Lossy
Stream size : 851 MiB (7%)
Language : English
Service kind : Complete Main
Default : Yes
Forced : No

Audio #2

ID : 3
Format : AC-3
Format/Info : Audio Coding 3
Commercial name : Dolby Digital
Codec ID : A_AC3
Duration : 1 h 56 min
Bit rate mode : Constant
Bit rate : 192 kb/s
Channel(s) : 2 channels
Channel layout : L R
Sampling rate : 48.0 kHz
Frame rate : 31.250 FPS (1536 SPF)
Bit depth : 16 bits
Compression mode : Lossy
Stream size : 160 MiB (1%)
Title : Commentary
Language : English
Service kind : Complete Main
Default : No
Forced : No

Text #1

ID : 4
Format : UTF-8
Codec ID : S_TEXT/UTF8
Codec ID/Info : UTF-8 Plain Text
Duration : 1 h 48 min
Bit rate : 81 b/s
Count of elements : 2050
Stream size : 64.7 KiB (0%)
Language : Romanian
Default : No
Forced : No

Text #2

ID : 5
Format : UTF-8
Codec ID : S_TEXT/UTF8
Codec ID/Info : UTF-8 Plain Text
Duration : 1 h 54 min
Bit rate : 82 b/s
Count of elements : 2113
Stream size : 69.2 KiB (0%)
Language : English
Default : No
Forced : No

Menu

00:00:00.000 : :Chapter 01
00:06:16.668 : :Chapter 02
00:11:19.679 : :Chapter 03
00:16:13.097 : :Chapter 04
00:21:28.287 : :Chapter 05
00:27:04.540 : :Chapter 06
00:33:31.885 : :Chapter 07
00:38:55.083 : :Chapter 08
00:45:53.250 : :Chapter 09
00:48:17.061 : :Chapter 10
00:56:24.339 : :Chapter 11
01:03:47.490 : :Chapter 12
01:09:16.486 : :Chapter 13
01:14:17.078 : :Chapter 14
01:19:04.615 : :Chapter 15
01:24:10.587 : :Chapter 16
01:31:51.923 : :Chapter 17
01:36:00.588 : :Chapter 18
01:40:03.247 : :Chapter 19
01:46:51.947 : :Chapter 20