General

Unique ID : 124184416363141641975075574938713591156 (0x5D6D0C71B483BC97990A3E85396E0D74)
Complete name : /home/30nama/movies/y/Yesterday_2019_10bit_1080p_x265_BluRay_AAC_7.1_Tigole_30NAMA.mkv
Format : Matroska
Format version : Version 4
File size : 3.54 GiB
Duration : 1 h 56 min
Overall bit rate : 4 355 kb/s
Movie name : Yesterday
Encoded date : UTC 2019-09-20 12:03:50
Writing application : mkvmerge v32.0.0 ('Astral Progressions') 64-bit
Writing library : libebml v1.3.7 + libmatroska v1.5.0

Video

ID : 1
Format : HEVC
Format/Info : High Efficiency Video Coding
Format profile : Main 10@L4@Main
Codec ID : V_MPEGH/ISO/HEVC
Duration : 1 h 56 min
Bit rate : 3 813 kb/s
Width : 1 920 pixels
Height : 804 pixels
Display aspect ratio : 2.40:1
Frame rate mode : Constant
Frame rate : 23.976 (24000/1001) FPS
Color space : YUV
Chroma subsampling : 4:2:0
Bit depth : 10 bits
Bits/(Pixel*Frame) : 0.103
Stream size : 3.10 GiB (88%)
Writing library : x265 3.1+8-21db162c8622:[Windows][GCC 9.1.0][64 bit] 10bit
Encoding settings : cpuid=1111039 / frame-threads=3 / numa-pools=8 / wpp / no-pmode / no-pme / no-psnr / no-ssim / log-level=2 / input-csp=1 / input-res=1920x804 / interlace=0 / total-frames=167216 / level-idc=0 / high-tier=1 / uhd-bd=0 / ref=4 / no-allow-non-conformance / no-repeat-headers / annexb / no-aud / no-hrd / info / hash=0 / no-temporal-layers / open-gop / min-keyint=23 / keyint=250 / gop-lookahead=0 / bframes=8 / b-adapt=2 / b-pyramid / bframe-bias=0 / rc-lookahead=25 / lookahead-slices=4 / scenecut=40 / radl=0 / no-splice / no-intra-refresh / ctu=64 / min-cu-size=8 / rect / no-amp / max-tu-size=32 / tu-inter-depth=1 / tu-intra-depth=1 / limit-tu=0 / rdoq-level=2 / dynamic-rd=0.00 / no-ssim-rd / signhide / no-tskip / nr-intra=0 / nr-inter=0 / no-constrained-intra / strong-intra-smoothing / max-merge=3 / limit-refs=3 / limit-modes / me=3 / subme=3 / merange=57 / temporal-mvp / no-hme / weightp / no-weightb / no-analyze-src-pics / deblock=0:0 / no-sao / no-sao-non-deblock / rd=4 / no-early-skip / rskip / no-fast-intra / no-tskip-fast / no-cu-lossless / no-b-intra / no-splitrd-skip / rdpenalty=0 / psy-rd=2.00 / psy-rdoq=1.00 / no-rd-refine / no-lossless / cbqpoffs=0 / crqpoffs=0 / rc=crf / crf=18.0 / qcomp=0.60 / qpstep=4 / stats-write=0 / stats-read=0 / ipratio=1.40 / pbratio=1.30 / aq-mode=3 / aq-strength=1.00 / cutree / zone-count=0 / no-strict-cbr / qg-size=32 / no-rc-grain / qpmax=69 / qpmin=0 / no-const-vbv / sar=0 / overscan=0 / videoformat=5 / range=0 / colorprim=2 / transfer=2 / colormatrix=2 / chromaloc=0 / display-window=0cll=0,0 / min-luma=0 / max-luma=1023 / log2-max-poc-lsb=8 / vui-timing-info / vui-hrd-info / slices=1 / no-opt-qp-pps / no-opt-ref-list-length-pps / no-multi-pass-opt-rps / scenecut-bias=0.05 / no-opt-cu-delta-qp / aq-motion / no-hdr / no-hdr-opt / no-dhdr10-opt / no-idr-recovery-sei / analysis-reuse-level=5 / scale-factor=0 / refine-intra=0 / refine-inter=0 / refine-mv=0 / refine-ctu-distortion=0 / no-limit-sao / ctu-info=0 / no-lowpass-dct / refine-analysis-type=0 / copy-pic=1 / max-ausize-factor=1.0 / no-dynamic-refine / no-single-sei / no-hevc-aq / no-svt / no-field / qp-adaptation-range=1.00
Default : Yes
Forced : No

Audio #1

ID : 2
Format : AAC LC
Format/Info : Advanced Audio Codec Low Complexity
Codec ID : A_AAC-2
Duration : 1 h 56 min
Bit rate : 453 kb/s
Channel(s) : 8 channels
Channel layout : C L R Ls Rs Rls Rb LFE
Sampling rate : 48.0 kHz
Frame rate : 46.875 FPS (1024 SPF)
Compression mode : Lossy
Delay relative to video : 20 ms
Stream size : 376 MiB (10%)
Language : English
Default : Yes
Forced : No

Audio #2

ID : 3
Format : AAC LC SBR
Format/Info : Advanced Audio Codec Low Complexity with Spectral Band Replication
Commercial name : HE-AAC
Format settings : Explicit
Codec ID : A_AAC-2
Duration : 1 h 56 min
Bit rate : 66.2 kb/s
Channel(s) : 2 channels
Channel layout : L R
Sampling rate : 48.0 kHz
Frame rate : 23.438 FPS (2048 SPF)
Compression mode : Lossy
Delay relative to video : 40 ms
Stream size : 54.5 MiB (2%)
Title : Commentary
Language : English
Default : No
Forced : No

Text #1

ID : 4
Format : VobSub
Muxing mode : zlib
Codec ID : S_VOBSUB
Codec ID/Info : Picture based subtitle format used on DVDs
Duration : 1 h 54 min
Bit rate : 13.9 kb/s
Count of elements : 2126
Stream size : 11.4 MiB (0%)
Language : English
Default : No
Forced : No

Text #2

ID : 5
Format : VobSub
Muxing mode : zlib
Codec ID : S_VOBSUB
Codec ID/Info : Picture based subtitle format used on DVDs
Duration : 1 h 54 min
Bit rate : 10.3 kb/s
Count of elements : 1530
Stream size : 8.45 MiB (0%)
Language : French
Default : No
Forced : No

Text #3

ID : 6
Format : VobSub
Muxing mode : zlib
Codec ID : S_VOBSUB
Codec ID/Info : Picture based subtitle format used on DVDs
Duration : 1 h 54 min
Bit rate : 9 441 b/s
Count of elements : 1533
Stream size : 7.76 MiB (0%)
Language : Spanish
Default : No
Forced : No

Menu

00:00:00.000 : en:Chapter 01
00:06:16.667 : en:Chapter 02
00:11:19.679 : en:Chapter 03
00:16:13.097 : en:Chapter 04
00:21:28.287 : en:Chapter 05
00:27:04.539 : en:Chapter 06
00:33:31.884 : en:Chapter 07
00:38:55.082 : en:Chapter 08
00:45:53.250 : en:Chapter 09
00:48:17.060 : en:Chapter 10
00:56:24.339 : en:Chapter 11
01:03:47.490 : en:Chapter 12
01:09:16.485 : en:Chapter 13
01:14:17.077 : en:Chapter 14
01:19:04.614 : en:Chapter 15
01:24:10.587 : en:Chapter 16
01:31:51.923 : en:Chapter 17
01:36:00.588 : en:Chapter 18
01:40:03.247 : en:Chapter 19
01:46:51.988 : en:Chapter 20